<?xml version="1.0" standalone="no"?>
<!DOCTYPE svg PUBLIC "-//W3C//DTD SVG 1.1//EN" "http://www.w3.org/Graphics/SVG/1.1/DTD/svg11.dtd" >
<svg xmlns="http://www.w3.org/2000/svg">
<metadata></metadata>
<defs>
<font id="al_frescobold" horiz-adv-x="567" >
<font-face units-per-em="2048" ascent="1331" descent="-717" />
<missing-glyph horiz-adv-x="393" />
<glyph horiz-adv-x="0" />
<glyph horiz-adv-x="682" />
<glyph horiz-adv-x="0" />
<glyph horiz-adv-x="0" />
<glyph unicode="&#xd;" horiz-adv-x="393" />
<glyph unicode=" "  horiz-adv-x="393" />
<glyph unicode="&#x09;" horiz-adv-x="393" />
<glyph unicode="&#xa0;" horiz-adv-x="393" />
<glyph unicode="!" horiz-adv-x="446" d="M29 43q0 31 25 77t44 46q28 0 53 -26.5t25 -41.5q0 -4 -31.5 -41.5t-31.5 -60.5q0 -19 -19 -19q-11 0 -38 24t-27 42zM150 264q0 36 104 250.5t208.5 425.5t104.5 238q0 18 19 18q22 0 66 -46.5t44 -70.5q0 -6 -6 -18t-16 -27l-12 -18q-54 -94 -175.5 -294t-197.5 -331.5 t-88 -171.5q-8 -16 -15 -18q-12 0 -24 20.5t-12 42.5z" />
<glyph unicode="&#x22;" horiz-adv-x="337" d="M0 1092q0 30 98 30q25 0 37.5 -8t14.5 -16.5t2 -24.5q0 -19 -10 -118t-19 -136q-6 -31 -25 -31q-20 0 -26 39q-15 99 -45 197q-6 21 -16.5 40t-10.5 28zM186 1110q0 23 35 23q47 0 77 -19.5t30 -50.5q0 -43 -39 -232q-7 -36 -29 -36q-7 0 -12 7.5t-6.5 15t-1.5 13.5 q-2 36 -5.5 66.5t-8 57.5t-7.5 42t-9.5 42t-8.5 36q-2 10 -8.5 21.5t-6.5 13.5z" />
<glyph unicode="#" horiz-adv-x="1071" d="M29 459q0 53 22 53q103 0 189 2l30 115q-132 -4 -178 -4q-11 0 -22 15t-11 32q0 37 20 69.5t40 32.5q1 0 25 -3t70.5 -8t90.5 -9q33 132 33 149q0 43 41 43q14 0 34.5 -4.5t45.5 -14t42 -29.5t17 -46q0 -20 -35 -113l150 -14q90 260 98 330q1 9 11.5 14.5t19.5 5.5 q37 0 71.5 -31.5t34.5 -66.5q0 -46 -94 -264q150 -11 193 -11q10 0 18 -7.5t8 -14.5q0 -18 -43 -18q-18 0 -184 -9h-18l-66 -149q103 -7 170 -18.5t90 -22.5t23 -21q0 -12 -10.5 -18t-20.5 -6q-3 0 -26 3.5t-68 7t-101 3.5h-45q-25 0 -43 -2q-8 -18 -30.5 -70.5t-33 -76 t-28.5 -67t-27.5 -68.5t-19.5 -53.5t-14 -47.5q-6 -27 -25 -27q-24 0 -24 37q0 118 57 299q11 44 18 64q-77 -8 -196 -31l-29 -65q-16 -38 -34 -89.5t-27.5 -71.5t-20.5 -20q-33 0 -33 47q0 78 21 175q-47 -7 -66 -7q-54 0 -82 31.5t-28 69.5zM385 514q64 0 174 -4l45 135 l-166 -8z" />
<glyph unicode="$" horiz-adv-x="937" d="M12 242q0 43 52.5 107t105 107.5t61.5 43.5q21 0 21 -27q0 -9 -21.5 -40.5t-48 -66.5t-48 -79.5t-21.5 -75.5q0 -121 100 -145q42 99 252 575q-11 13 -38 43.5t-40 47.5t-30.5 43.5t-25 53.5t-7.5 56q0 100 82.5 174t197.5 74q19 0 64 -9l14 35q5 11 7.5 20.5t2.5 10.5 q3 8 19 8q22 0 47.5 -19.5t25.5 -41.5q0 -9 -6 -21l-20 -39q38 -28 63 -62t25 -59q0 -48 -26 -85t-50 -37q-9 0 -31 21.5t-22 31.5q0 9 31.5 39t31.5 55q0 42 -45 47q-187 -374 -196 -393q4 -5 25.5 -32t28 -35.5t25 -34t26 -39t20 -38t18 -42.5t10 -41.5t4.5 -46.5 q0 -85 -60.5 -162.5t-146 -121.5t-163.5 -44q-27 0 -39 2q-8 -31 -17 -49q-18 -35 -69 -35q-17 0 -29 4q-22 11 -22 19v4q0 2 5.5 12t15.5 29.5t17 35.5q-75 29 -125.5 89.5t-50.5 132.5zM305 66q106 35 176 139.5t70 218.5q0 88 -41 156q-60 -125 -137 -316 q-42 -103 -68 -198zM457 821q0 -64 35 -119l129 310q-73 -24 -118.5 -75.5t-45.5 -115.5z" />
<glyph unicode="%" horiz-adv-x="765" d="M-70 -33q0 11 21 49q45 75 168 280.5t184 308.5t138.5 236t117.5 206q3 6 13 23.5t16 29.5t12 27.5t6 25.5q0 29 31 29q20 0 59 -61.5t39 -88.5q0 -6 -1 -11.5t-2 -9t-4.5 -10t-5.5 -10t-9 -13.5t-11 -17q-20 -32 -53 -80.5t-84.5 -121t-93 -130.5t-116 -160t-113 -154.5 t-124.5 -169.5t-112 -153q-35 -45 -57 -45q-19 0 -19 20zM10 838q0 62 45 128t105.5 107t107.5 41q40 0 92 -49t52 -92q0 -50 -40 -123t-99.5 -128.5t-106.5 -55.5q-48 0 -102 55t-54 117zM119 770q0 -45 33 -45q43 0 120.5 86t77.5 141q0 6 -1.5 12t-2.5 8l-2 3l-2.5 -5 t-9.5 -12t-19 -17t-31.5 -18t-45.5 -18q-52 -16 -84.5 -59.5t-32.5 -75.5zM311 158q0 71 45.5 137t105 102.5t107.5 36.5q39 0 90.5 -51t51.5 -90q0 -53 -39 -124t-97 -123t-106 -52q-46 0 -102 52t-56 112zM420 90q0 -39 35 -39q42 0 119 84t77 133t-24 49 q-28 0 -76.5 -32.5t-89.5 -88t-41 -106.5z" />
<glyph unicode="&#x26;" horiz-adv-x="1144" d="M-16 274q0 125 112.5 241.5t278.5 195.5q-80 64 -80 153q0 96 89.5 184.5t226.5 140.5t274 52q57 0 98 -34.5t41 -78.5q0 -41 -37.5 -97t-78.5 -93t-56 -37q-14 0 -32.5 24t-18.5 42q0 8 12 14q71 34 122.5 77t51.5 77q0 9 -8.5 18.5t-24.5 9.5q-116 0 -242 -51.5 t-210 -132t-84 -156.5q0 -65 14 -88q186 78 309 78q30 0 58 -25.5t28 -56.5q0 -41 -54 -75.5t-140 -34.5q-97 0 -182 43q-134 -86 -221 -211.5t-87 -253.5q0 -84 43 -123t111 -39q156 0 320 99t245 220q-32 -10 -71.5 -25.5t-64 -24.5t-36.5 -9q-43 0 -87 30t-44 68 q0 43 49.5 85t113.5 65.5t112 23.5q36 0 77 -33t41 -73q0 -25 -4 -39q30 6 56 6q49 0 74.5 -14.5t25.5 -32.5q0 -13 -24.5 -36t-32.5 -23q-1 0 -5 4.5t-11 11t-17 13.5t-26.5 11.5t-35.5 4.5q-14 0 -22 -2q-28 -66 -85.5 -134.5t-132.5 -125.5t-168 -93.5t-182 -36.5 q-80 0 -166.5 37.5t-149 108t-62.5 151.5zM485 688q42 -10 90 -10q65 0 133 28.5t68 55.5q0 5 -6 10.5t-16 5.5q-116 0 -269 -90zM639 354q0 -6 0.5 -9t5 -6t12.5 -3q17 0 53.5 12.5t90 32.5t92.5 31q14 35 14 63q0 18 -12 32.5t-29 14.5q-35 0 -89 -27.5t-96 -68t-42 -72.5 z" />
<glyph unicode="'" horiz-adv-x="180" d="M0 1094q0 30 98 30q25 0 37.5 -8t14.5 -16.5t2 -24.5q0 -19 -10 -109.5t-19 -127.5q-6 -29 -25 -29t-24 31q-15 98 -47 186q-7 19 -17 39t-10 29z" />
<glyph unicode="(" horiz-adv-x="368" d="M16 436q0 142 32.5 283.5t80.5 246t100.5 187.5t94.5 125.5t61 42.5q33 0 66.5 -33.5t33.5 -54.5q0 -11 -8 -20t-28 -25.5t-35 -32.5q-17 -18 -48.5 -59.5t-78 -118.5t-86.5 -160.5t-68.5 -190.5t-28.5 -204q0 -100 18 -185t44 -137.5t58.5 -92t58 -57t47.5 -24.5 q16 -5 16 -10q0 -14 -18 -14q-20 0 -55 18t-80 60.5t-84 101.5t-66 152.5t-27 201.5z" />
<glyph unicode=")" horiz-adv-x="425" d="M-80 -113q0 6 5 11.5t12 5.5q1 0 6 -1t10 -1q37 0 87.5 60t101 168.5t94 241.5t71 297t27.5 318q0 86 -4 150t-10 96t-11.5 50.5t-9.5 27t-4 12.5q0 18 18 18q10 0 35 -55.5t49.5 -159.5t24.5 -208q0 -165 -25 -332.5t-64 -297t-84.5 -233t-89 -158.5t-75.5 -55 q-52 0 -91 7.5t-56 17.5t-17 20z" />
<glyph unicode="*" horiz-adv-x="557" d="M16 1153q0 13 20 32t30 19q5 0 13 -6.5t22.5 -20t29.5 -24.5q30 -20 96 -57q-5 41 -12 87t-10.5 71.5t-3.5 33.5q0 13 20 22t51 9t49.5 -9t18.5 -24q0 -3 -1 -27.5t-3 -72t-4 -94.5q166 122 174 122t13 -8t5 -16q0 -2 -23.5 -24.5t-65.5 -59.5t-85 -74q172 -88 172 -108 q0 -23 -21 -61t-34 -38q-10 0 -35 37q-1 1 -16.5 18.5t-35.5 34.5t-56 43q-3 -61 -15 -198q-4 -19 -14 -19q-16 0 -19 19l-28 188q-68 -50 -102.5 -88.5t-39 -50.5t-8.5 -12q-10 0 -45 33t-35 47q0 9 21 22.5t78 47.5t112 73q-54 41 -109.5 71t-79.5 41.5t-24 20.5z" />
<glyph unicode="+" horiz-adv-x="733" d="M2 684q0 35 33 35q141 0 260 2q-4 76 -25 219q-3 19 -16.5 42.5t-13.5 31.5q0 33 41 33q44 0 93.5 -34t49.5 -75q0 -24 -18 -215q246 4 284 4q39 0 39 -22t-43 -29q-66 -15 -291 -49q-18 -203 -18 -250q0 -58 -31 -58q-15 0 -27 33q-3 7 -5.5 43t-6 104t-6.5 109 q-151 -28 -164 -33q-22 -9 -36 -20.5t-21 -11.5q-14 0 -46 59t-32 82z" />
<glyph unicode="," horiz-adv-x="202" d="M-43 -129q0 4 8.5 13t19 20.5t19 38t8.5 61.5q0 55 21 107q7 28 30 28q25 0 67 -33t42 -59q0 -53 -75 -127t-117 -74q-11 0 -17 8.5t-6 16.5z" />
<glyph unicode="-" horiz-adv-x="632" d="M35 395q0 27 16 27q5 0 15 -10q21 -21 65 -21q123 0 240.5 12.5t146.5 12.5q40 0 60 -27t20 -55q0 -17 -12 -17q-8 0 -13 9q-12 28 -59 28q-71 0 -206 -48t-175 -48q-34 0 -66 53t-32 84z" />
<glyph unicode="." horiz-adv-x="266" d="M6 -2q0 39 19.5 82t19.5 65q0 25 27 25q30 0 79.5 -38.5t49.5 -70.5t-33.5 -63t-52.5 -31q-8 0 -22 2t-17 2q-8 0 -20 -4t-21 -4q-29 0 -29 35z" />
<glyph unicode="/" horiz-adv-x="352" d="M-127 -123q0 7 18 45l697 1292q2 4 10 19t13.5 25.5t12 24.5t10 26t3.5 20q0 31 31 31q20 0 60 -62.5t40 -89.5q0 -9 -2.5 -16.5t-5.5 -12.5l-10.5 -17.5t-14.5 -24.5q-14 -24 -402 -628t-390 -607q-26 -43 -52 -43q-8 0 -13 6t-5 12z" />
<glyph unicode="0" horiz-adv-x="909" d="M-23 279q0 125 71 276.5t174.5 274.5t229.5 206.5t228 83.5q77 0 117 -63q52 -18 93.5 -73t41.5 -118q0 -99 -39.5 -221t-107.5 -236.5t-150 -211t-176 -155t-176 -58.5q-109 0 -207.5 86t-98.5 209zM123 205q0 -60 27.5 -103t78.5 -43q89 0 180 56.5t165 149t133 203 t91.5 226t32.5 211.5q0 76 -49 119q-2 -6 -6 -14.5t-21 -24t-40 -18.5q-57 -7 -135 -56t-157 -129t-147 -174t-110.5 -201.5t-42.5 -201.5z" />
<glyph unicode="1" horiz-adv-x="552" d="M18 719q0 7 5.5 13.5t13.5 6.5q3 0 14 -7t21 -7q41 0 122.5 48.5t143.5 97.5l61 49q5 7 13.5 19.5t31.5 44.5t43.5 56t42.5 44t35 20q38 0 65 -43.5t27 -71.5q0 -7 -21.5 -32t-58.5 -67.5t-79 -95.5t-90 -129t-84 -155q-61 -131 -97.5 -251.5t-43.5 -169.5t-7 -75 q0 -18 5 -35t5 -18q0 -10 -18 -10q-28 0 -76.5 46t-48.5 75q0 66 76.5 252.5t131 298.5t85.5 172q-31 -31 -68 -74q-42 -50 -72.5 -72t-66.5 -22q-35 0 -73 36t-38 56z" />
<glyph unicode="2" horiz-adv-x="872" d="M-86 78q0 37 65.5 72.5t155.5 35.5q61 0 129 -18q187 143 336.5 373t149.5 403q0 29 -17.5 49.5t-42.5 20.5q-83 0 -197.5 -62t-198 -150t-83.5 -155q0 -21 5 -40t5 -21q0 -21 -24 -21q-21 0 -61 51.5t-40 94.5q0 76 57.5 152.5t139 129.5t168.5 86t149 33 q60 0 121.5 -50.5t100 -123.5t38.5 -137q0 -101 -70.5 -226.5t-175 -236t-225.5 -201.5q73 -16 187 -16q60 0 118.5 23t94.5 46t39 23q7 0 11.5 -6.5t4.5 -11.5q0 -3 -27 -32.5t-53 -53.5q-8 -7 -19 -15t-15.5 -13t-6.5 -11q-12 -44 -43 -63t-88 -19q-26 0 -62 9t-61.5 19 t-80.5 32t-81 32q-70 -47 -142 -73.5t-120 -26.5q-57 0 -99 32t-42 66zM-37 53q0 -13 4 -15.5t19 -2.5q92 0 213 82q-62 18 -103 18q-60 0 -96.5 -28t-36.5 -54z" />
<glyph unicode="3" horiz-adv-x="903" d="M33 158q0 5 4 9.5t10 4.5q11 0 21 -16q11 -19 53.5 -39.5t89.5 -20.5q71 0 144.5 31.5t133 82t107 111.5t74 123.5t26.5 112.5q0 34 -16.5 58t-46.5 24q-81 0 -163.5 -30.5t-134 -60.5t-56.5 -30q-21 0 -36.5 17.5t-15.5 35.5q0 9 14.5 20t28.5 18l15 7q19 24 51.5 65 t127 144.5t181.5 180.5q-28 0 -86 -27t-126 -53.5t-120 -26.5q-56 0 -93.5 55.5t-37.5 112.5q0 18 23 18q3 0 10.5 -8.5t18.5 -19t38.5 -19t65.5 -8.5q85 0 190 24.5t190.5 49t123.5 24.5q16 0 24 -40.5t8 -83.5q0 -2 -1 -3.5t-3.5 -4t-5.5 -4.5t-7.5 -4.5t-8.5 -5t-10.5 -6 t-11.5 -6t-13 -7t-14 -7.5q-70 -37 -179.5 -123t-211.5 -182q1 0 23.5 10t45.5 19t52 19.5t55.5 17t44.5 6.5q53 0 119.5 -96.5t66.5 -188.5q0 -62 -49.5 -143t-123.5 -151.5t-169 -119.5t-176 -49q-65 0 -119 23.5t-83.5 55.5t-45.5 60t-16 44z" />
<glyph unicode="4" horiz-adv-x="966" d="M-66 541q0 31 26.5 50t53.5 19q16 0 49 -6.5t59 -13.5l25 -6q11 9 28.5 25.5t62.5 67.5t79.5 102t62.5 121.5t28 133.5q0 12 -3.5 27t-3.5 18q0 21 21 21q30 0 80.5 -57t50.5 -130q0 -49 -46 -112.5t-110 -118.5t-105.5 -86.5t-58.5 -42.5q29 -3 129 -21.5t166 -25.5 l47 88q102 192 218.5 376.5t134.5 184.5q34 0 75 -51t41 -84q0 -6 -18 -15.5t-53.5 -34.5t-67.5 -63q-148 -178 -227 -352l-23 -53q36 0 69 8t54.5 19t38 22t26 19t11.5 8q6 0 10 -5t4 -10q0 -3 -12 -23t-33.5 -48.5t-47 -56t-57.5 -47t-61 -19.5q-31 0 -47 2 q-46 -128 -71 -241.5t-25 -164.5q0 -24 -27 -24q-30 0 -82.5 45.5t-52.5 70.5q0 54 133 349q-24 8 -75.5 26.5t-80.5 28t-70.5 18t-76.5 8.5q-67 -28 -149 -28q-41 0 -70 24.5t-29 57.5z" />
<glyph unicode="5" horiz-adv-x="794" d="M-61 102q0 8 6 14.5t16 6.5q1 0 7.5 -6t18 -15t28 -18t43 -15t57.5 -6q73 0 163 54.5t163.5 133.5t124 172t50.5 165q0 106 -108 106q-48 0 -145 -52t-160 -114q-4 -3 -14 -11.5t-16 -13.5t-14 -9.5t-14 -4.5q-17 0 -45 32t-28 50q0 7 33.5 56t74 111t74 156t33.5 181 q0 27 28 27q11 0 42 -40.5t51 -47.5q72 0 136 15t106.5 36t74 42.5t50 36.5t22.5 15q19 0 48 -50t29 -87q0 -36 -93 -62t-214 -26q-55 0 -93 3t-49 6l-11 3q-48 -170 -97 -254q1 0 30 12.5t79 26.5t94 14q72 0 141.5 -85t69.5 -201q0 -75 -49 -162.5t-124.5 -160.5 t-175 -122t-192.5 -49q-49 0 -98 18.5t-81 42.5t-52 46t-20 30z" />
<glyph unicode="6" horiz-adv-x="829" d="M20 322q0 130 55.5 273t142 256t198.5 187t217 74q60 0 124 -45t64 -90q0 -40 -38.5 -104.5t-78.5 -110t-49 -45.5q-22 0 -22 22q0 7 20 44.5t40 96.5t20 119q0 50 -33 50q-44 0 -109 -45.5t-132 -125.5t-125.5 -176.5t-96 -211t-37.5 -216.5t39 -174.5t90 -72.5 t113.5 69t106.5 177t44 208q0 31 -13 48.5t-36 17.5q-42 0 -91 -27t-78 -52t-76 -71q-12 -12 -21 -12q-16 0 -16 18q0 9 28 37q7 7 27.5 28t32 32t32 30.5t35 30t33 22.5t35 17.5t31.5 5.5q41 0 99.5 -26t106.5 -74t48 -100q0 -88 -66 -191.5t-157 -172.5t-160 -69 q-50 0 -110.5 27.5t-113 73t-88 112t-35.5 136.5z" />
<glyph unicode="7" horiz-adv-x="749" d="M29 72q0 67 81 236.5t206 355.5t231 282q-9 -3 -64 -21.5t-85.5 -27t-84.5 -18t-102 -9.5t-84 21.5t-54 55.5t-26 66t-8 62q0 25 20 25q4 0 13 -9.5t27.5 -23.5t47.5 -28t82.5 -23.5t122.5 -9.5t125 4t87 10t52 12.5t28 10.5l7 4q125 86 158 86q24 0 48 -44.5t24 -80.5 q0 -12 -9 -21t-32 -22t-31 -19q-163 -111 -326 -305t-262.5 -378.5t-99.5 -287.5q0 -16 -17 -16q-15 0 -45 42.5t-30 70.5z" />
<glyph unicode="8" horiz-adv-x="770" d="M-41 172q0 31 12.5 63t28 58.5t49.5 61t57 56t73 59t74 55t81 57.5q-6 5 -31 22t-33.5 23.5t-28 22.5t-27.5 27t-19 27.5t-15 33.5t-4 36q0 83 85.5 164t207.5 129.5t231 48.5q20 0 32.5 -16t12.5 -41q4 -2 10 -5.5t21.5 -14.5t27.5 -23t22 -29.5t10 -34.5 q0 -28 -11 -55.5t-36.5 -56t-49 -51t-68.5 -53.5t-74 -50t-85 -54.5t-84 -53.5q12 -10 41 -32.5t44 -35t38 -36.5t35 -45.5t21 -52.5t9 -65q0 -93 -64 -177.5t-158 -132.5t-185 -48q-83 0 -166.5 72.5t-83.5 146.5zM51 121q0 -26 21 -47t61 -21q55 0 131.5 45t137.5 125 t61 162q0 54 -20.5 90.5t-61.5 69.5q-74 -49 -128 -92.5t-102.5 -96.5t-74 -112t-25.5 -123zM342 735q0 -41 9.5 -67t33.5 -50q336 244 336 410q-8 -3 -21.5 -8t-53 -22t-75.5 -35t-79.5 -45.5t-75 -54.5t-53 -61t-21.5 -67z" />
<glyph unicode="9" horiz-adv-x="815" d="M-41 51q0 19 21 19q2 0 20 -4.5t27 -4.5q73 0 167 46.5t185.5 129.5t169.5 184.5t126 224t48 235.5q0 53 -22 82.5t-62 29.5q-66 0 -145 -51t-141.5 -123.5t-105 -155.5t-42.5 -145q0 -72 40.5 -111.5t100.5 -39.5q35 0 67 13.5t50.5 27.5t21.5 14q7 0 13 -5.5t6 -13.5 q0 -9 -22.5 -30.5t-66 -42.5t-87.5 -21q-50 0 -113.5 44t-110.5 114.5t-47 136.5q0 71 50 160t124 163.5t165 125.5t167 51q96 0 176 -90t80 -205q0 -86 -31 -185.5t-82.5 -192.5t-122.5 -179.5t-148 -151t-161 -103t-159 -38.5q-56 0 -106 31.5t-50 60.5z" />
<glyph unicode=":" horiz-adv-x="274" d="M35 127q0 28 11 61.5t11 38.5q0 11 11.5 22t23.5 11q27 0 67 -33t40 -59q0 -28 -24 -49.5t-48 -30.5q-15 -6 -39 -6q-8 0 -19 1t-12 1q-22 0 -22 43zM88 369q0 22 15.5 58t15.5 67q0 22 24 22q25 0 66 -32t41 -60q0 -24 -28 -51t-44 -27q-5 0 -15 1t-16 1q-5 0 -17 -4 t-19 -4q-8 0 -15.5 7t-7.5 22z" />
<glyph unicode=";" horiz-adv-x="311" d="M-6 -23q0 4 8.5 13t19 21t19 38.5t8.5 61.5q0 53 21 106q7 29 30 29q25 0 67 -33t42 -59q0 -35 -37 -83.5t-83.5 -83t-72.5 -34.5q-11 0 -16.5 8t-5.5 16zM113 369q0 22 15 58t15 67q0 22 25 22t65.5 -32t40.5 -60q0 -24 -27.5 -51t-43.5 -27q-5 0 -15 1t-16 1 q-4 0 -17 -4t-20 -4q-8 0 -15 7t-7 22z" />
<glyph unicode="&#x3c;" horiz-adv-x="569" d="M18 362q0 16 48 60q43 37 145.5 127.5t170 148.5t75.5 58q32 0 65 -41.5t33 -67.5q0 -3 -1 -5.5t-2 -4t-4 -4t-5 -3.5t-6.5 -3.5t-6.5 -3.5q-44 -24 -141.5 -98.5t-173.5 -137.5l-76 -63q344 -216 379 -234q25 -13 32 -19t7 -14q0 -10 -33 -33.5t-59 -23.5 q-9 0 -203.5 152t-218.5 174q-25 25 -25 36z" />
<glyph unicode="=" horiz-adv-x="821" d="M53 688q0 11 9 17t18 6q4 0 20.5 -7.5t63 -14.5t123.5 -7q67 0 260 12.5t213 12.5q7 0 14.5 -7t7.5 -18q0 -10 -19.5 -24.5t-53.5 -24.5q-132 -38 -298 -61t-315 -23q-11 0 -27 49.5t-16 89.5zM61 467q0 29 27 29q6 0 22 -8t61.5 -16.5t123.5 -8.5q67 0 238.5 5t191.5 5 q29 0 29 -24q0 -15 -22 -34.5t-60 -19.5q-118 0 -280.5 -32.5t-233.5 -32.5q-43 0 -70 45.5t-27 91.5z" />
<glyph unicode="&#x3e;" horiz-adv-x="593" d="M14 57q0 8 7 14t32 19q16 8 110.5 66.5t181.5 113.5l87 54q-293 246 -391 299q-2 1 -6.5 3.5t-6.5 3.5t-5 3.5t-4 4t-2 4t-1 5.5q0 25 33.5 67t65.5 42q8 0 75.5 -58t170 -148.5t145.5 -127.5q47 -43 47 -60q0 -11 -25 -36q-24 -22 -218.5 -174t-203.5 -152 q-26 0 -59 23.5t-33 33.5z" />
<glyph unicode="?" horiz-adv-x="913" d="M-8 754q0 75 42.5 145.5t112 123.5t155 93t174.5 61t167 21q104 0 180 -76t76 -170q0 -48 -33.5 -106t-86.5 -114.5t-117.5 -115.5t-129 -115.5t-117.5 -108t-86.5 -100.5t-33.5 -85q0 -23 2 -37l2 -14q0 -13 -18 -13q-13 0 -55 37.5t-42 69.5q0 58 66 138t160 160.5 t187.5 161.5t159.5 162.5t66 141.5q0 119 -151 119q-81 0 -176.5 -33t-178.5 -88.5t-138.5 -137t-55.5 -167.5q0 -20 3.5 -36t7 -24.5t3.5 -9.5q0 -19 -20 -19q-24 0 -74.5 45t-50.5 91zM86 4q0 18 23.5 60.5t23.5 54.5q0 3 1 6.5t6 7.5t12 4q23 0 52 -30.5t29 -55.5 q0 -9 -8.5 -22.5t-23.5 -32.5t-21 -27q-20 -30 -30 -30q-11 0 -37.5 20.5t-26.5 44.5z" />
<glyph unicode="@" horiz-adv-x="849" d="M-20 102q0 82 34 156.5t92 131t131.5 98.5t155 63.5t160.5 21.5q140 0 222.5 -77.5t82.5 -190.5q0 -117 -79 -219t-179 -102q-58 0 -90.5 32.5t-32.5 75.5q0 15 8 39q-6 -6 -16 -15t-39 -33t-55 -42.5t-56.5 -33.5t-50.5 -15q-32 0 -65 29t-33 71q0 80 65.5 165 t162 139.5t182.5 54.5q40 0 89.5 -57.5t49.5 -82.5q0 -20 -19 -20q-5 0 -32.5 20.5t-51.5 20.5q-50 0 -133.5 -45.5t-149 -109.5t-65.5 -109q0 -13 7.5 -19t15.5 -6q16 0 79.5 53t110.5 97q13 13 36 38.5t38 39.5t25 14q15 0 56.5 -42.5t41.5 -56.5q0 -12 -44 -68t-44 -75 q0 -27 20 -27q41 0 83 49t68.5 124t26.5 147q0 80 -54.5 135t-147.5 55q-73 0 -160 -36.5t-162 -95t-125.5 -142.5t-50.5 -170q0 -68 38 -105.5t95 -37.5q89 0 189 67q12 8 18 8q16 0 16 -16q0 -11 -14 -21q-47 -34 -69 -48.5t-57 -28t-71 -13.5q-93 0 -173 61.5t-80 153.5z " />
<glyph unicode="A" horiz-adv-x="2117" d="M-14 23q0 129 59.5 264.5t155.5 250.5t219.5 218t250.5 175t248.5 114t213.5 42q80 0 125 -41t45 -100q0 -56 -24.5 -117.5t-56.5 -105.5t-61 -73t-41 -29q-19 0 -45 8t-26 16q0 11 12 14q51 11 120.5 110.5t69.5 201.5q0 37 -24.5 62.5t-81.5 25.5q-82 0 -190.5 -45.5 t-220.5 -122.5t-221.5 -184.5t-194 -225t-137 -252.5t-52.5 -258q0 -132 61.5 -202t180.5 -70q35 0 76.5 14.5t82 36t92.5 61.5t94 75.5t102.5 95t103 103t109.5 116t107.5 117.5t111.5 124.5t108 120.5q-188 -47 -364 -152.5t-287 -246.5q-2 -2 -5 -6.5t-4.5 -6t-4 -3 t-5.5 -1.5q-16 0 -48 29t-32 49q0 30 78 97q235 197 719 292l8 9q112 122 213 219.5t219 191.5t227.5 157t230 101.5t234.5 38.5q23 0 36.5 -15.5t13.5 -29.5q0 -10 -4 -10q-1 0 -21 2t-29 2q-373 0 -909 -639q150 10 236 10q7 0 73 -4q98 169 221.5 325.5t237.5 262.5 q23 20 35 20q7 0 10.5 -5t3.5 -9q0 -11 -20 -31q-97 -95 -201 -251.5t-180 -321.5q123 -15 123 -47q0 -12 -13 -12q-2 0 -14.5 4.5t-42 11.5t-68.5 12q-122 -274 -122 -555q0 -123 57 -123q16 -4 16 -14t-22 -10q-24 0 -59.5 11.5t-74.5 34t-66.5 65t-27.5 94.5 q0 174 187 505q-25 2 -84 2q-88 0 -238 -16q-101 -122 -182 -215.5t-176 -194.5t-175 -174.5t-170 -142t-171.5 -111t-168 -67.5t-169.5 -25q-104 0 -191.5 38t-144.5 120t-57 195z" />
<glyph unicode="B" horiz-adv-x="1882" d="M-12 588q0 123 86.5 240.5t226.5 206.5t311.5 157t348.5 103.5t329 35.5q239 0 395 -78t156 -200q0 -99 -112 -205.5t-277 -192.5q127 -38 209 -104q107 0 176 -14q12 -3 25.5 -21.5t13.5 -30.5q0 -6 -10 -6q-3 0 -20.5 6t-54 12.5t-83.5 8.5q82 -92 82 -201 q0 -88 -66.5 -184.5t-175 -178t-237.5 -148t-264.5 -104.5t-245.5 -38q-103 0 -191.5 23.5t-147.5 74.5t-59 119q0 59 75 143.5t201 171t275.5 164t316 132.5t304.5 67q-64 58 -170 86q-129 -65 -260.5 -104.5t-216.5 -39.5q-41 0 -65.5 16.5t-24.5 43.5q0 49 120.5 94 t288.5 45q28 0 90 -8q155 89 253 204t98 218q0 198 -402 198q-120 0 -255 -27.5t-265.5 -76t-250.5 -121t-210.5 -156.5t-144.5 -188t-54 -211q0 -61 28 -90t69 -29q58 0 121.5 30.5t115 74t104 103.5t86 106.5t64.5 95.5q17 25 23 25q14 0 14 -15q0 -10 -20 -51 q-24 -43 -56.5 -92t-81.5 -107.5t-100 -104.5t-111.5 -77t-115.5 -31q-60 0 -117.5 25t-99 79t-41.5 126zM510 -158q0 -38 16.5 -65.5t44.5 -41.5t58.5 -20t64.5 -6q126 0 265 44t259.5 117.5t218.5 162.5t155 186.5t57 181.5q0 53 -33 101q-178 -12 -377.5 -80t-359 -161.5 t-264.5 -207.5t-105 -211zM606 328q0 74 84.5 234t192 313t210 270t136.5 117q26 0 60 -39t34 -64q0 -14 -27 -33q-81 -54 -185.5 -159t-199.5 -225t-160 -246t-65 -211q0 -8 -5 -12.5t-11 -4.5q-11 0 -37.5 18t-26.5 42zM887 557q0 -14 37 -14q67 0 165 29t199 81 q-44 6 -86 6q-79 0 -155 -19.5t-118 -43t-42 -39.5z" />
<glyph unicode="C" horiz-adv-x="1228" d="M-14 156q0 96 37 201.5t101 204.5t151.5 197t187.5 182t210.5 156.5t217.5 124t211.5 80.5t191.5 29q69 0 120 -37t73 -84t22 -92q0 -55 -48 -129t-110 -133.5t-120 -102t-80 -42.5q-33 0 -75 23t-42 34q0 15 17 18q53 9 124.5 45t136.5 86t110.5 113.5t45.5 118.5 q0 68 -116 68q-97 0 -228 -50t-265.5 -134t-266 -199.5t-233.5 -238.5t-165 -260t-63 -257q0 -122 71 -178t208 -56q417 0 819 398q8 8 12 8q12 0 12 -10q0 -2 -6 -8.5t-12 -12.5l-6 -6q-60 -63 -147.5 -132.5t-197.5 -138.5t-235 -114t-231 -45q-76 0 -154 30t-139 79.5 t-100 119.5t-39 144z" />
<glyph unicode="D" horiz-adv-x="2103" d="M-16 471q0 98 67.5 203t180.5 198.5t267 178.5t321.5 146.5t348.5 97.5t344 36q185 0 329 -39.5t230 -106.5t129.5 -149.5t43.5 -175.5q0 -128 -67.5 -260.5t-180.5 -246t-263.5 -215t-313 -172.5t-333 -112.5t-319.5 -41.5q-140 0 -244 56t-104 142q0 125 131.5 241.5 t343.5 203.5q75 170 198.5 357t235.5 308t162 121q18 0 47 -41.5t29 -71.5q0 -17 -27 -32q-112 -70 -265.5 -241.5t-252.5 -354.5q272 90 512 90q95 0 159.5 -10.5t85.5 -21t21 -19.5q0 -13 -4 -13q-1 0 -10 3t-25.5 8t-39 9.5t-55.5 7.5t-69 3q-318 0 -612 -131 q-90 -195 -90 -328q0 -30 -18 -30q-5 0 -19 7.5t-28.5 23.5t-14.5 34q0 89 47 232q-143 -81 -226 -182t-83 -208q0 -133 215 -133q144 0 300 42.5t300.5 117t275.5 180.5t228 226.5t154 262.5t57 283q0 53 -9 94.5t-41.5 88.5t-87.5 77.5t-155 51t-236 20.5 q-158 0 -329.5 -36t-325.5 -97.5t-294.5 -145.5t-242 -176t-161.5 -193.5t-60 -195.5q0 -84 60 -84q108 0 267 83.5t305 218.5t210 268q9 18 16 18q6 0 10.5 -6t4.5 -12q0 -7 -10 -27q-71 -142 -205.5 -278t-288 -222t-274.5 -86q-92 0 -172 46t-80 110z" />
<glyph unicode="E" horiz-adv-x="1187" d="M-12 -92q0 54 31 112.5t77.5 109t120 107t139.5 99t156.5 92.5t150.5 80.5t140 69.5l-2 6q-14 -4 -25 -9q-369 -133 -489 -133q-77 0 -141 47.5t-64 122.5q0 70 56.5 152.5t151 161.5t223 153t267 129.5t288.5 89t282 33.5q85 0 133.5 -46.5t48.5 -102.5 q0 -53 -66 -131.5t-153 -145t-160 -100.5q-47 -21 -63 -21t-39 18.5t-23 33.5q0 14 12 16q88 22 196 84.5t184.5 136t76.5 121.5q0 53 -84 53q-127 0 -270.5 -35t-271.5 -92.5t-247.5 -131t-205.5 -149.5t-137.5 -150.5t-51.5 -131.5q0 -34 22 -54t66 -20q74 0 201.5 41 t229 82t110.5 41q25 0 52.5 -51.5t27.5 -83.5q0 -6 -7.5 -13.5t-26 -18t-30.5 -17.5t-41 -21.5t-38 -19.5q-273 -148 -397 -231q-292 -197 -292 -330q0 -46 27 -70t78 -24q124 0 250.5 32t228.5 80.5t200.5 115t167.5 125.5t130 122q8 8 12 8t8 -4.5t4 -7.5l-24 -29 q-62 -62 -137.5 -125.5t-177 -133t-202.5 -122t-216.5 -87t-218.5 -34.5q-82 0 -165 64.5t-83 136.5z" />
<glyph unicode="F" horiz-adv-x="1359" d="M-6 -207q0 4 3.5 8t10.5 4q1 0 7.5 -4.5t19.5 -10.5t31.5 -12.5t49 -11t66.5 -4.5q65 0 125 14t110 35.5t100 61t88 76t81.5 95.5t73.5 104.5t70.5 118.5t66 121.5t66.5 129.5q3 5 4 8q-28 -4 -45 -4q-152 -14 -271 -85t-119 -154q0 -13 -12 -13q-6 0 -11 16.5t-5 37.5 q0 68 33.5 117t93.5 76t130.5 39t156.5 13q48 0 71 2q203 396 361 559q-262 39 -443 39q-291 0 -446.5 -98t-155.5 -256q0 -10 -14 -10q-7 0 -24.5 18t-34.5 53.5t-17 71.5q0 74 41 129t117.5 88t176.5 48.5t226 15.5q94 0 189.5 -8t145 -15t149 -24t122.5 -21 q88 80 197 125t225 45q23 0 37 -16t14 -27q0 -6 -4 -6l-16 4q-16 4 -27 4q-195 0 -342 -141q95 -10 179 -10q41 0 73.5 4.5t50.5 10.5t29.5 12.5t16.5 10t6 3.5q8 0 8 -19q0 -7 -22.5 -19.5t-75.5 -25t-119 -12.5q-73 0 -176 14q-81 -91 -150 -221.5t-145 -312.5 q76 13 125 34q54 50 77 50q14 0 30 -28.5t16 -49.5q0 -3 -15.5 -6.5t-41 -13t-54.5 -25.5t-60.5 -50.5t-54.5 -80.5q-9 -17 -16 -17q-8 0 -8 13q0 6 4 18q14 35 37.5 69.5t39.5 52.5l17 17q-53 -19 -115 -28q-46 -107 -78.5 -179t-85 -171t-98.5 -165t-110.5 -138 t-130.5 -114t-150.5 -70t-177.5 -28q-77 0 -150 26.5t-110 54t-37 38.5z" />
<glyph unicode="G" horiz-adv-x="1581" d="M-4 737q0 13 8 13q6 0 19 -13q12 -14 38 -31t90.5 -40.5t143.5 -32.5q145 185 378 349t485 261.5t450 97.5q97 0 154 -45t57 -110q0 -71 -88.5 -157.5t-238 -167t-327.5 -148t-375.5 -108t-363.5 -40.5q-199 -215 -199 -379q0 -78 37.5 -116.5t124.5 -38.5q61 0 165 47.5 t212 115.5t211 135.5t182.5 115t104.5 47.5q39 0 94 -41t55 -82q0 -53 -88 -213q37 6 70 6q19 0 41 -13.5t35.5 -27t13.5 -17.5q0 -8 -6 -8q-2 0 -13 1t-27 2t-30 1q-59 0 -123 -12q-14 -21 -22 -37q-51 -83 -119 -173t-148.5 -178.5t-160 -158.5t-158.5 -113.5t-139 -43.5 q-53 0 -97.5 44t-44.5 91q0 75 71.5 164.5t183 169.5t243 149t256.5 111q145 222 145 307q0 24 -18 24q-33 0 -149.5 -70.5t-244 -154.5t-273 -154.5t-230.5 -70.5q-102 0 -180 63.5t-78 163.5q0 173 133 361q-82 19 -145.5 54t-89 61.5t-25.5 39.5zM436 -485 q0 -21 12.5 -34t36.5 -13q54 0 171.5 94.5t240 226t205.5 248.5q-162 -56 -313 -144t-252 -191t-101 -187zM487 629q160 8 342.5 48.5t343 99.5t293.5 126.5t211 137.5t78 124q0 37 -28.5 56.5t-79.5 19.5q-131 0 -341.5 -85.5t-433.5 -228t-385 -298.5z" />
<glyph unicode="H" horiz-adv-x="1916" d="M-10 426q0 111 59 226t154.5 213t219 185.5t251.5 148.5t252.5 96.5t220.5 35.5q123 0 218 -73t95 -166q0 -53 -23.5 -121t-53 -125.5t-90.5 -148.5t-100 -144.5t-118 -159.5q82 12 272 47t295 49q114 220 243.5 409t228.5 298q39 45 67 45q27 0 58.5 -45.5t31.5 -77.5 q0 -4 -3 -8.5t-6.5 -8t-10 -9t-10.5 -9.5q-105 -93 -237 -255t-214 -326q143 0 143 -53q0 -15 -14 -15q-3 0 -6 5t-8.5 11.5t-27.5 11.5t-58 5q-10 0 -26 -2.5t-21 -3.5q-52 -74 -132.5 -285.5t-80.5 -310.5q0 -23 -17 -23q-10 0 -38.5 22t-28.5 46q0 93 44 249t105 294 q-123 -18 -324 -82t-292 -78q-66 -94 -105 -153.5t-83 -137t-64.5 -142.5t-20.5 -122q0 -21 1 -39.5t1 -20.5q0 -14 -12 -14q-36 0 -91.5 35.5t-55.5 69.5q0 93 64.5 221.5t180.5 300.5q-51 12 -87 55t-36 66q0 10 11 10q2 0 21 -12t49.5 -24.5t62.5 -12.5h30 q36 52 104.5 147.5t108 150.5t92 136.5t80.5 136t49 114.5t21 105q0 59 -30.5 91t-108.5 32q-89 0 -204.5 -37.5t-234 -101.5t-232.5 -154.5t-202.5 -190t-143 -215t-54.5 -222.5q0 -56 29 -91.5t83 -35.5q67 0 139.5 36t131.5 90t114.5 121t92 124.5t59.5 105.5 q10 24 20 24q13 0 13 -16q0 -18 -25 -70q-19 -44 -47 -95t-77 -122.5t-101.5 -127t-122.5 -95t-139 -39.5q-96 0 -197.5 82.5t-101.5 169.5z" />
<glyph unicode="I" horiz-adv-x="1331" d="M-4 -317q0 5 4 9.5t10 4.5q1 0 14 -4.5t36.5 -10.5t54 -12.5t74.5 -11t90 -4.5q153 0 272.5 68.5t234.5 201.5q-65 30 -118.5 66t-99.5 84t-71.5 109.5t-25.5 131.5q0 85 36.5 167t95 148.5t141.5 131t167.5 113.5t181.5 98t174 82.5t155 69t116 55.5q15 17 39 42t73 67 t70 42q6 0 16.5 -15.5t10.5 -21.5q0 -10 -21 -20q-72 -41 -145 -117q-65 -70 -121 -192.5t-101 -260.5t-94.5 -281t-123 -288.5t-162.5 -247.5q27 -4 59 -4h45q13 0 24 -11.5t11 -16.5q0 -4 -6.5 -8.5t-17.5 -4.5q-50 0 -136 21q-232 -256 -632 -256q-100 0 -185.5 21.5 t-126.5 41.5q-18 9 -18 13zM616 303q0 -117 52 -198t147 -146q81 99 161 233.5t143 263.5t122.5 252.5t122 233t119.5 174.5q-22 -11 -94.5 -44t-128 -59.5t-140 -73.5t-148 -91t-134.5 -107.5t-116.5 -127t-75.5 -144.5t-30 -166z" />
<glyph unicode="J" horiz-adv-x="1495" d="M-8 -311q0 106 52.5 204.5t144.5 178.5t203.5 143.5t244.5 114.5q10 75 53.5 151t113 144.5t149.5 132t179 127t183.5 114t181.5 109t156 98.5q126 125 157 125q13 0 23 -14.5t10 -30.5q0 -9 -13.5 -17t-54.5 -41.5t-89 -92.5q-22 -27 -43.5 -61.5t-38 -63.5t-37.5 -81.5 t-32 -79.5t-33.5 -94.5t-30 -91t-33 -105t-31.5 -101.5q129 -8 129 -33q0 -5 -16.5 -23t-22.5 -18q-3 0 -10.5 5.5t-30.5 15t-61 16.5q-47 -146 -78.5 -238.5t-86.5 -228t-104.5 -221.5t-124 -184.5t-153.5 -154.5t-184 -94t-224 -38q-186 0 -317 124t-131 304zM61 -387 q0 -87 45.5 -155t113.5 -102t142 -34q92 0 177 36t152 88t136.5 147t117 174t107.5 211.5t94.5 217.5t90.5 230q-210 0 -492 -109q0 -39 15 -73.5t32.5 -53.5t32.5 -34t15 -19q0 -13 -32.5 -40t-53.5 -27q-31 0 -75 59.5t-44 142.5q-121 -54 -220 -118.5t-181 -146 t-127.5 -182.5t-45.5 -212zM748 369q280 93 503 96q53 133 84.5 209.5t77 172.5t90.5 163t94 116q-53 -35 -160.5 -101t-183.5 -113.5t-173 -119.5t-160.5 -133t-112.5 -138.5t-59 -151.5z" />
<glyph unicode="K" horiz-adv-x="1599" d="M-12 569q0 88 45.5 182t120.5 176.5t174 158t203.5 129t211.5 85t195 31.5q125 0 226.5 -79t101.5 -173q0 -135 -85 -295.5t-235 -361.5q44 -16 98 -45q192 107 384 275t318 343.5t126 290.5q0 19 24 19t69.5 -36.5t45.5 -72.5q0 -85 -82 -202.5t-213 -233.5t-293 -226.5 t-323 -189.5q158 -99 275.5 -251t117.5 -228q0 -33 -40 -68t-60 -35q-23 0 -23 23q0 106 -107 260.5t-257 255.5q-157 -73 -218 -90q-63 -84 -93.5 -126t-75.5 -110.5t-65.5 -112.5t-37 -97t-16.5 -99q0 -28 -29 -28q-6 0 -29.5 17t-47 45.5t-23.5 53.5q0 84 62 195.5 t177 261.5q-36 11 -59 38t-23 66q0 48 61 94t159 46q31 0 47 -2q77 98 131.5 174.5t108 164.5t81 165.5t27.5 142.5q0 96 -47 147t-152 51q-97 0 -213.5 -47.5t-224.5 -129t-198 -180t-144.5 -210.5t-54.5 -211q0 -76 27.5 -115.5t99.5 -39.5q67 0 159.5 52.5t177 128.5 t155.5 160.5t103 149.5q11 21 21 21q14 0 14 -17q0 -10 -12 -37q-32 -73 -91 -156t-137.5 -162t-178 -131t-195.5 -52q-113 0 -188.5 67t-75.5 180zM565 297q0 -15 18 -30.5t52 -18.5l115 145q-25 2 -37 2q-70 0 -109 -34.5t-39 -63.5zM829 270q17 6 33.5 13t27 12.5t30 16 t32.5 16.5l11 4q-42 23 -62 30z" />
<glyph unicode="L" horiz-adv-x="1470" d="M-2 -250q0 54 66.5 108.5t185.5 97.5t262 62q52 80 111.5 191.5t107.5 213.5t107 217.5t114 212t125.5 187t143.5 153.5t165.5 100.5t194.5 37.5q65 0 108.5 -24.5t59.5 -51.5q43 46 43 64q0 4 3.5 8t10.5 4q10 0 45 -43t35 -57q0 -15 -40 -40.5t-89.5 -52.5t-96.5 -74.5 t-58 -100.5q-6 -17 -15 -17q-14 0 -14 21q0 35 14 72.5t41.5 75.5t48.5 62.5t54 59.5q-25 8 -70 8q-84 0 -164 -34t-147 -91t-135.5 -139.5t-124.5 -171t-119 -195t-115.5 -202t-116 -201.5t-118.5 -184q65 6 116 6q101 0 205.5 -13.5t185 -33.5t145.5 -42t99.5 -40.5 t34.5 -28.5q0 -25 -36 -85t-54 -60q-2 0 -37.5 26t-96.5 62.5t-138.5 73t-183 62.5t-210.5 26q-31 0 -65 -3q-221 -296 -480 -296q-34 0 -34 10q0 14 18 14q115 0 205.5 66.5t183.5 199.5q-193 -22 -323.5 -91t-130.5 -138q0 -14 -13 -14q-14 0 -14 22z" />
<glyph unicode="M" horiz-adv-x="2654" d="M-14 424q0 94 53 202t140.5 206.5t205 190.5t241.5 159.5t255 108t241 40.5q96 0 181 -39.5t137.5 -109.5t52.5 -154q0 -82 -45 -196.5t-112.5 -226t-146.5 -233.5t-146.5 -222.5t-112.5 -189.5t-45 -136q0 -8 8 -8q15 0 96.5 100t194 250t254 324.5t273.5 324.5t256 250 t198 100q60 0 114 -54t54 -101q0 -43 -57.5 -138.5t-140 -207t-164.5 -223t-140 -208t-59 -141.5q33 37 86 93t157 160t195.5 186t183 145t137.5 63q43 0 99.5 -43.5t56.5 -89.5q0 -33 -31 -92t-75.5 -128t-88.5 -143t-75 -154t-31 -144q0 -36 16.5 -67.5t53.5 -31.5 q18 0 18 -12q0 -10 -27 -10q-34 0 -67 11.5t-62 34t-47 60t-18 84.5q0 62 31.5 143t76.5 155.5t89.5 144t76 128t31.5 89.5q0 18 -18 18q-59 0 -206.5 -118.5t-296 -268.5t-257.5 -280q-71 -84 -97 -84q-30 0 -77 46t-47 79q0 48 66 162t160.5 245.5t188.5 260t160 228.5 t66 128q0 30 -23 30q-45 0 -117.5 -48.5t-153.5 -125t-180.5 -185.5t-188 -215.5t-188 -231.5t-169 -216t-142 -185.5t-96.5 -125.5q-15 -20 -25 -25.5t-28 -5.5q-38 0 -96 40t-58 79q0 69 63.5 188t153.5 251t180.5 267t154 267.5t63.5 220.5q0 223 -189 223 q-109 0 -232 -42.5t-234 -112.5t-214 -162.5t-178 -189.5t-119.5 -197t-44.5 -182q0 -146 107 -146q79 0 178 48.5t187.5 122.5t169 158t134 158t70.5 119q7 13 14 13q10 0 23.5 -22t13.5 -34q0 -27 -51.5 -96t-139.5 -154.5t-190.5 -164.5t-221 -133t-214.5 -54 q-88 0 -160.5 60.5t-72.5 142.5z" />
<glyph unicode="N" horiz-adv-x="2088" d="M-14 520q0 91 52.5 189.5t141 187t207 169t246 138.5t263.5 92.5t255 34.5q155 0 249.5 -76t94.5 -215q0 -108 -84 -311q34 28 102 83t99 80t87 68.5t86.5 63.5t75.5 48t75.5 40t65.5 21.5t66 9.5q51 0 114 -51t63 -99q0 -57 -49 -156t-119 -212t-140 -232.5t-119 -248 t-49 -228.5q0 -85 31.5 -124.5t83.5 -39.5q17 0 17 -12t-31 -12q-32 0 -72 14.5t-80.5 42t-68 76t-27.5 106.5q0 106 49.5 241.5t119.5 260t140.5 239t120 209t49.5 140.5q0 20 -12.5 31.5t-32.5 11.5q-29 0 -64.5 -11t-68.5 -26.5t-80 -47t-82 -56.5t-93 -72.5t-93.5 -77.5 t-104.5 -88.5t-106 -89.5q-32 -60 -92 -175q-61 -116 -91 -172t-79.5 -144t-80 -129.5t-70 -88.5t-74 -65.5t-68.5 -18.5q-46 0 -90.5 29t-44.5 70q0 66 139 236.5t348 373.5q185 389 185 563q0 96 -42.5 143t-156.5 47q-111 0 -233 -36t-234.5 -97.5t-215 -146t-178 -177 t-120.5 -196t-45 -198.5q0 -87 43 -133t119 -46q101 0 197.5 39.5t161.5 91.5t125 122.5t87 112.5t49 83q12 24 23 24q12 0 12 -16q0 -6 -6 -18q-15 -38 -47 -93.5t-87.5 -127.5t-118.5 -132t-148 -101.5t-169 -41.5q-93 0 -180.5 43.5t-141.5 115t-54 148.5zM717 -68 q0 -14 16 -14q15 0 69.5 63t132.5 178.5t144 237.5q-144 -145 -253 -283.5t-109 -181.5z" />
<glyph unicode="O" horiz-adv-x="1449" d="M-10 397q0 121 54 242t145 222t211.5 189.5t250.5 149.5t265.5 96t254.5 35q177 0 290.5 -111.5t113.5 -283.5q0 -123 -49.5 -263.5t-131 -269.5t-191 -249.5t-225.5 -209t-238.5 -141.5t-225.5 -53q-75 0 -157 40t-141.5 115.5t-59.5 162.5q0 37 2 55q-168 102 -168 274 zM98 338q0 -122 64 -178q19 150 99.5 300t197 269.5t251 213.5t271.5 145t250 51q56 0 96.5 -49t40.5 -80q0 -13 -18 -13q-175 0 -359 -76t-332 -198.5t-250.5 -288.5t-121.5 -336q53 -18 129 -18q107 0 220.5 26t199 64.5t145 72.5t86.5 58q13 10 18 10t9 -4t4 -8 q0 -3 -17 -20q-29 -29 -80 -66.5t-130.5 -84t-184.5 -77.5t-209 -31q-91 0 -194 35v-43q0 -96 49 -148t141 -52q114 0 240 49t241.5 131t222 195.5t184.5 237.5t124.5 261t46.5 262q0 149 -93 236.5t-243 87.5q-100 0 -221 -34.5t-242.5 -95t-236.5 -149t-203 -189 t-141.5 -222.5t-53.5 -244z" />
<glyph unicode="P" horiz-adv-x="1835" d="M-14 449q0 118 68 233.5t182.5 211t267.5 178t321.5 139t347 88.5t340.5 32q244 0 392.5 -99.5t148.5 -252.5q0 -110 -61 -218.5t-161 -192.5t-221.5 -149.5t-248.5 -100.5t-236 -35q-98 0 -98 22q0 12 16 12q2 0 20 -1t23 -1q74 0 163 26t178.5 71.5t174 112 t149.5 142.5t104.5 169t39.5 186q0 125 -114 200.5t-330 75.5q-98 0 -218.5 -25t-246.5 -72t-251 -109.5t-235 -143t-195 -168t-134 -188t-49 -199.5q0 -76 33.5 -121t103.5 -45q117 0 242.5 81.5t227.5 209.5t173 281q11 26 21 26q14 0 14 -18q0 -15 -25 -76 q-101 -247 -269 -395t-347 -148q-123 0 -217 72.5t-94 188.5zM641 -178q0 100 71 281t177.5 372.5t220 367t211 288t137.5 112.5q28 0 64.5 -48.5t36.5 -70.5q0 -14 -27 -30q-82 -49 -214.5 -213.5t-256.5 -364t-214.5 -413t-90.5 -345.5q0 -22 -21 -22q-14 0 -54 31t-40 55 z" />
<glyph unicode="Q" horiz-adv-x="1476" d="M-14 293q0 108 61 231t162 236t238 218t283 182.5t302.5 124t292.5 46.5q145 0 244.5 -92.5t99.5 -245.5q0 -121 -53 -256t-144.5 -264t-202 -247t-237.5 -224q116 -19 180.5 -66.5t87.5 -109.5q5 -10 5 -14q0 -7 -7 -7t-35.5 5.5t-29.5 9.5q-15 55 -72 97t-160 60 q-179 -147 -360 -239t-279 -92q-61 0 -116.5 34.5t-55.5 79.5q0 72 97.5 132t249.5 92t319 32q27 0 43 -2q126 115 236 245t201.5 272.5t144.5 292t53 282.5q0 78 -52 135t-159 57q-130 0 -273 -48t-272 -128.5t-247 -188.5t-204 -223.5t-137 -238t-51 -229.5 q0 -84 37 -131.5t107 -47.5q81 0 179 51.5t188 136.5t163 207.5t102 252.5q0 3 5 10.5t10 7.5q14 0 14 -31q0 -100 -45 -203.5t-116.5 -185t-154.5 -146.5t-164.5 -100.5t-141.5 -35.5q-64 0 -122 15.5t-107 46t-78 83.5t-29 121zM297 -295q0 -12 9 -20.5t28 -8.5 q88 0 230 83.5t308 228.5q-123 0 -233.5 -26.5t-183.5 -68t-115.5 -91.5t-42.5 -97z" />
<glyph unicode="R" horiz-adv-x="1947" d="M-16 401q0 126 78 249t209.5 223.5t306 187t365 145.5t389 92t376.5 33q236 0 373 -91.5t137 -235.5q0 -86 -64.5 -185.5t-168 -190t-228 -169t-250.5 -133.5q100 -71 157.5 -179.5t57.5 -220.5q0 -18 -39.5 -57t-60.5 -39q-14 0 -14 27q0 129 -39 244.5t-121 193.5 q-157 -66 -272 -66q-57 0 -101.5 31t-44.5 82q0 34 50.5 58t109.5 24q99 0 184 -33q159 71 320.5 195t271 265t109.5 243q0 46 -17 81t-57 64t-115 44t-184 15q-123 0 -269.5 -27.5t-295 -78.5t-294.5 -119t-272.5 -152.5t-223.5 -175.5t-152.5 -192.5t-55.5 -198.5 q0 -176 131 -176q150 0 299 115t244 313q13 27 21 27q12 0 12 -17q0 -13 -8 -34q-76 -205 -223 -327t-310 -122q-112 0 -216.5 83.5t-104.5 184.5zM674 -180q0 120 105.5 362.5t241.5 471t268.5 402t183.5 173.5q28 0 66 -47.5t38 -69.5q0 -15 -27 -31 q-82 -49 -214.5 -213.5t-256.5 -363t-214.5 -409.5t-90.5 -339q0 -22 -20 -22q-13 0 -46.5 31t-33.5 55zM1073 348q0 -20 62 -20q84 0 196 45q-61 26 -139 26q-46 0 -82.5 -15.5t-36.5 -35.5z" />
<glyph unicode="S" horiz-adv-x="1406" d="M-16 336q0 94 71 208.5t186 223t265.5 212t305 180.5t310 124t275.5 47q85 0 134.5 -50.5t49.5 -113.5q0 -58 -62 -143.5t-139.5 -157t-145.5 -123t-83 -51.5q-9 0 -27 15.5t-18 23.5q0 7 10 10q90 45 188.5 120.5t169 159t70.5 138.5q0 30 -22 50t-66 20 q-109 0 -252.5 -45t-287 -118.5t-284 -170.5t-247.5 -196t-173.5 -200.5t-66.5 -179.5q0 -40 25.5 -66t69.5 -26q79 0 184.5 26t192 57t188.5 57t176 26q80 0 151.5 -60.5t71.5 -131.5q64 12 103 12q19 0 36 -14.5t17 -22.5q0 -14 -12 -14q-64 0 -152 -10 q-35 -101 -192 -239.5t-340.5 -237.5t-288.5 -99q-55 0 -106.5 34t-51.5 89q0 73 131 168t316 174.5t366 126.5q19 49 19 84q0 48 -19.5 76t-75.5 28q-73 0 -220 -47t-299 -94t-236 -47q-85 0 -150 49.5t-65 118.5zM326 -342q0 -23 14.5 -37t42.5 -14q66 0 194.5 78 t258 202.5t182.5 237.5q-168 -38 -326.5 -113t-262 -171t-103.5 -183z" />
<glyph unicode="T" horiz-adv-x="1245" d="M-12 516q0 113 60.5 220.5t184.5 202.5t297 166.5t414 113t520 41.5q69 0 129 2t103 5.5t79 8t60 9.5t43 10.5t29 10.5t17.5 9.5t11 8t6 5.5t4.5 2q13 0 28 -35.5t15 -81.5q0 -59 -123 -59q-47 0 -288.5 10.5t-406.5 10.5q-184 0 -350 -37t-293.5 -103.5t-221 -154.5 t-142.5 -195t-49 -221q0 -97 50.5 -147t139.5 -50q74 0 155 38t147 94t125 121.5t95.5 118.5t51.5 87q8 21 16 21q16 0 16 -19q0 -10 -8 -29q-13 -35 -42 -87t-82.5 -123.5t-116 -131t-149.5 -101.5t-175 -42q-87 0 -165.5 33.5t-131.5 104t-53 163.5zM750 -147 q0 106 54.5 271t138 330.5t174 313.5t171 241t121.5 93q28 0 64 -48.5t36 -70.5q0 -15 -26 -31q-76 -50 -186.5 -188.5t-213.5 -306.5t-176 -354t-73 -314q0 -22 -21 -22q-11 0 -37 30.5t-26 55.5z" />
<glyph unicode="U" horiz-adv-x="1916" d="M-10 432q0 104 57 216t149.5 209.5t211 186t240.5 151t240.5 99.5t207.5 37q144 0 232.5 -79t88.5 -191q0 -74 -49.5 -174t-123 -196.5t-160 -207t-160 -207t-123 -196.5t-49.5 -174q0 -56 53 -56q77 0 207 84t269.5 214t272.5 274t236 276q76 98 143.5 214t67.5 159 q0 7 5 13t15 6q12 0 54.5 -51.5t42.5 -82.5q0 -34 -71 -156.5t-155.5 -257t-155.5 -285.5t-71 -234q0 -53 30 -77t64 -24q19 0 19 -14q0 -17 -52 -17q-76 0 -137 56t-61 149q0 52 10.5 99.5t40.5 110t50.5 98.5t72.5 124q-103 -115 -218 -230.5t-249 -235t-255 -194.5 t-196 -75q-58 0 -121 49t-63 107q0 66 37.5 151t98 171.5t133.5 179.5l146 186t133.5 180t98 172t37.5 152q0 69 -37.5 110t-111.5 41q-91 0 -205 -37.5t-227.5 -101t-223 -152.5t-193.5 -186.5t-135 -209t-51 -214.5q0 -63 29.5 -107t95.5 -44q67 0 140.5 40.5t136 103 t118.5 136.5t93.5 143t54.5 121q6 13 12 13q13 0 13 -19q0 -9 -7 -37q-17 -79 -67 -170t-120 -172t-163.5 -134.5t-185.5 -53.5q-99 0 -179.5 64.5t-80.5 156.5z" />
<glyph unicode="V" horiz-adv-x="1818" d="M-14 451q0 99 55 207t144.5 203.5t207 183t240 150t245.5 99.5t222 37q124 0 199 -76.5t75 -185.5q0 -69 -51 -200t-124 -275t-146.5 -285t-126 -258.5t-54.5 -167.5q583 416 854 748t271 622q0 7 6 12t12 5q20 0 34.5 -57t14.5 -126q0 -89 -27 -174.5t-70 -162 t-124 -164.5t-161.5 -161.5t-212.5 -173.5t-246 -180.5t-291 -201.5q-92 -63 -111 -90l-5 -3q-6 -3 -11 -3q-20 0 -70.5 44t-50.5 85q0 71 61.5 199t149 269.5t175 283.5t149 273.5t61.5 207.5q0 81 -31 118t-110 37q-90 0 -204 -42t-226 -112t-220 -165t-190 -195.5 t-132 -209t-50 -201.5q0 -43 24 -74t66 -31q84 0 190 58.5t196.5 144.5t162.5 183.5t98 174.5q8 21 16 21q15 0 15 -23q0 -10 -11 -43q-26 -85 -99 -187t-161.5 -186.5t-186.5 -142t-169 -57.5q-108 0 -190 73t-82 175z" />
<glyph unicode="W" horiz-adv-x="2211" d="M-12 442q0 104 54 215.5t142 207.5t202 183t231.5 149t233.5 98t206 36q59 0 116.5 -27t98.5 -68.5t66.5 -91.5t25.5 -95q0 -63 -65 -189t-157 -269.5t-184.5 -288.5t-157.5 -278t-65 -206q0 -17 8 -17q10 0 93 87.5t200 212.5t241 250t238 212.5t171 87.5q34 0 75 -36.5 t41 -71.5q0 -31 -28.5 -94.5t-62.5 -127t-62.5 -141.5t-28.5 -133q0 -40 16 -67t31 -27q62 0 140.5 69.5t152.5 185.5t137 252.5t101 285t38 268.5q0 56 -4 99.5t-9.5 66t-11 36.5t-9.5 20t-4 7q0 12 16 12q6 0 22 -11.5t37 -35.5t40 -56t32.5 -79t13.5 -98 q0 -93 -34 -211.5t-89.5 -234t-128.5 -228t-149 -197.5t-153.5 -137.5t-139.5 -52.5q-75 0 -143 49t-68 127q0 56 34 137t74.5 147.5t74.5 129t34 86.5q0 10 -10 10q-44 0 -149.5 -88t-228 -213t-241 -250t-207.5 -213t-108 -88q-42 0 -93.5 43.5t-51.5 85.5q0 74 49 186.5 t122.5 228t159 246t159 241t122.5 211.5t49 159q0 54 -34.5 92.5t-88.5 38.5q-92 0 -205.5 -37.5t-224.5 -101.5t-216.5 -152.5t-186 -185t-129.5 -205.5t-49 -209q0 -51 28.5 -85t67.5 -34q100 0 223.5 71t228.5 189t150 242q8 21 14 21q15 0 15 -19q0 -1 -7 -29 q-44 -147 -146.5 -266.5t-223 -182.5t-232.5 -63q-79 0 -159 60t-80 149z" />
<glyph unicode="X" horiz-adv-x="1302" d="M-10 561q0 89 48.5 181.5t129 172.5t187 151t219 121t227.5 79.5t211 29.5q100 0 181 -69.5t81 -169.5q0 -124 -66 -301q236 176 377 324.5t141 228.5q0 8 6 15t19 7q14 0 42 -46.5t28 -72.5q0 -20 -20.5 -49t-69.5 -73t-95 -82t-134.5 -104t-147 -108.5t-172.5 -123.5 q-17 -43 -64.5 -159t-70 -176t-44.5 -148t-22 -154q0 -49 13 -70.5t57 -21.5q10 0 21.5 3t14.5 3q10 0 16.5 -7t6.5 -14q0 -3 -9.5 -6.5t-27.5 -6.5t-37 -3q-47 0 -99 19.5t-94 65.5t-42 107q0 84 27 163t92 216q-179 -130 -313 -234t-256 -209.5t-186.5 -187t-64.5 -133.5 q0 -22 -20 -22q-10 0 -41 44t-31 73q0 25 27.5 61.5t82.5 84.5t119 98t157 116.5t176 124t195.5 136.5t197.5 140q42 90 65.5 143t55 136.5t46.5 157.5t15 143q0 109 -127 109q-90 0 -197 -32t-209 -86t-198 -129.5t-168.5 -158t-116 -175.5t-43.5 -179q0 -36 28.5 -67 t67.5 -31q89 0 212 82.5t225.5 204.5t138.5 231q6 18 14 18q14 0 14 -20q0 -11 -4 -27q-25 -127 -123.5 -249.5t-222 -196.5t-227.5 -74q-73 0 -146 55t-73 131z" />
<glyph unicode="Y" horiz-adv-x="1789" d="M-12 463q0 84 32 170t87.5 161t129.5 146.5t158 130t173.5 107.5t174.5 82.5t163 52t138 18.5q113 0 201 -78.5t88 -183.5q0 -68 -49 -167t-118.5 -199.5t-139.5 -200t-119 -193.5t-49 -155q0 -28 19 -47t63 -19q65 0 216 88t300.5 214t204.5 220q8 14 49 84t56 94.5 t51.5 85t57.5 90.5t51.5 73t56 72t49.5 50q32 29 57 29q7 0 16 -13t9 -20q0 -2 -8.5 -8t-22 -16t-23.5 -21q-47 -52 -77 -94t-86.5 -154t-124.5 -284q-159 -398 -283 -627q76 -11 111.5 -38t35.5 -58q0 -19 -12 -19q-3 0 -5.5 2t-5.5 6t-5 6q-41 41 -138 62 q-65 -119 -126 -212.5t-137 -182.5t-153.5 -147.5t-172 -94t-195.5 -35.5q-94 0 -174 75t-80 155q0 77 84 165t210.5 158.5t287 117.5t303.5 48q38 64 76 134t60 114t58 118.5t50 102.5q-52 -53 -175.5 -143t-266 -169t-210.5 -79q-70 0 -136 48t-66 128q0 64 52.5 158.5 t128 193.5t151 199.5t128 201t52.5 173.5q0 151 -129 151q-87 0 -212.5 -47t-256.5 -131t-244 -187.5t-185.5 -230t-72.5 -243.5q0 -94 38 -137.5t103 -43.5q118 0 283.5 144.5t267.5 318.5q16 29 25 29q14 0 14 -19q0 -9 -19 -49q-95 -188 -252.5 -331.5t-287.5 -143.5 q-76 0 -143 26t-113.5 83t-46.5 135zM516 -569q0 -78 111 -78q86 0 177 44.5t176.5 124.5t163.5 179.5t150 218.5q-126 -1 -269 -54.5t-253 -129.5t-183 -160.5t-73 -144.5z" />
<glyph unicode="Z" horiz-adv-x="1429" d="M-8 -453q0 92 72.5 187.5t191.5 173.5t262.5 140.5t295 97t278.5 34.5q32 91 32 170q0 55 -16.5 92t-63.5 58q-153 -114 -304 -185t-246 -71q-46 0 -90 28t-44 62q0 53 91 107t212.5 86t217.5 32l65 -4q165 146 279 312t114 284q0 67 -35 104t-100 37q-125 0 -255.5 -46 t-229 -116t-161 -158.5t-62.5 -168.5q0 -28 21.5 -48t47.5 -20q97 0 199.5 67.5t159.5 143.5q1 2 3 5t3.5 4.5t3 3.5t3 3t3.5 1q5 0 16 -13t11 -24q0 -23 -65 -75.5t-158.5 -98t-157.5 -45.5q-72 0 -135.5 49.5t-63.5 107.5q0 74 78 159t192.5 152t251 111.5t246.5 44.5 q138 0 235 -72t97 -190q0 -112 -114.5 -256t-291.5 -283q91 -30 150 -92t59 -147q0 -72 -16 -127q34 -11 47.5 -19t13.5 -18q0 -5 -14 -19t-18 -14q-2 0 -4 2.5t-5 6t-11 8.5t-21 10q-49 -141 -175.5 -283t-279 -245.5t-314.5 -168.5t-282 -65q-93 0 -156 54t-63 134z M74 -506q0 -44 26.5 -71t81.5 -27q146 0 330.5 108t341.5 283.5t225 357.5q-124 0 -264.5 -34t-270.5 -96t-236 -141.5t-170 -179.5t-64 -200zM446 307q0 -31 37 -31q59 0 177.5 68.5t248.5 177.5q-12 2 -35 2q-80 0 -180.5 -32.5t-174 -84.5t-73.5 -100z" />
<glyph unicode="[" horiz-adv-x="645" d="M12 -66q0 25 105.5 543.5t161.5 779.5q8 37 23.5 51.5t47.5 14.5q134 0 223 -15t89 -44q0 -18 -6.5 -25.5t-13 -8.5t-24.5 -1q-12 0 -73.5 5t-79.5 5q-20 0 -29.5 -22.5t-23.5 -86.5q-246 -1138 -246 -1163q0 -28 18 -28q26 0 89 18t92 18q42 0 83 -18t41 -33 q0 -24 -43 -24q-83 0 -141.5 -7t-86.5 -17t-46 -20t-34 -17t-36 -7q-35 0 -62.5 35.5t-27.5 66.5z" />
<glyph unicode="\" horiz-adv-x="542" d="M-317 1208q0 27 40 89.5t60 62.5q31 0 31 -31q0 -8 3.5 -20t10 -26t12 -24.5t13.5 -25.5t10 -19l696 -1292q19 -40 19 -45t-5.5 -11.5t-13.5 -6.5q-25 0 -51 43q-2 3 -390.5 607t-402.5 628q-6 11 -14 24t-11 18t-5 12.5t-2 16.5z" />
<glyph unicode="]" horiz-adv-x="724" d="M51 -109q0 13 2 21t10 10.5t12 3t19 0.5q12 0 73.5 -5t80.5 -5q22 0 31.5 16t21.5 72q246 1138 246 1184q0 29 -19 29q-26 0 -88.5 -18.5t-91.5 -18.5q-42 0 -83.5 18.5t-41.5 32.5q0 24 43 24q83 0 141.5 7t86.5 17t46 20t34 17t36 7q35 0 62.5 -35.5t27.5 -66.5 q0 -25 -106 -548t-160 -775q-7 -37 -23.5 -51.5t-48.5 -14.5q-70 0 -190.5 16.5t-120.5 42.5z" />
<glyph unicode="^" horiz-adv-x="837" d="M33 846q0 9 157.5 198.5t188.5 223.5q24 24 37 24q16 0 59 -47q313 -370 313 -391q0 -32 -41.5 -65t-66.5 -33q-8 0 -12.5 5t-12.5 19q-24 44 -93.5 141.5t-127.5 173.5l-57 76q-236 -343 -254 -378q-13 -25 -19 -32t-14 -7q-10 0 -33.5 33t-23.5 59z" />
<glyph unicode="_" horiz-adv-x="1308" d="M25 -96q0 18 22 18q1 0 8 -1t19 -1q7 0 36 5.5t79.5 14t119.5 16.5t177 13.5t231 5.5q183 0 319.5 -13.5t190 -28.5t53.5 -27q0 -19 -43 -19q-7 0 -58 5.5t-142 10.5t-195 5q-149 0 -274.5 -12.5t-201 -30t-128.5 -35.5t-82 -30.5t-37 -12.5q-22 0 -58 51t-36 66z" />
<glyph unicode="`" horiz-adv-x="497" d="M61 852q0 22 48 61t71 39q16 0 23 -26q11 -45 45 -88t67.5 -68.5t60.5 -46t27 -27.5q0 -18 -22 -18q-21 0 -47.5 4t-95.5 32.5t-138 80.5q-39 29 -39 57z" />
<glyph unicode="a" horiz-adv-x="768" d="M-96 80q0 79 79.5 183t191 177.5t196.5 73.5q59 0 110 -41t51 -78q0 -23 -6 -39t-14 -16q-5 0 -14 9t-9 16q0 3 5.5 13.5t5.5 20.5q0 7 -10.5 17t-22.5 10q-67 0 -148.5 -47.5t-146 -113t-108.5 -137.5t-44 -120q0 -18 15 -18q49 0 280 231q111 111 138 111 q16 0 49 -36.5t33 -59.5q0 -9 -23.5 -35.5t-46.5 -59.5t-23 -59q0 -14 9.5 -21.5t21.5 -7.5q44 0 118 46.5t125 92.5l52 46q8 8 12 8q8 0 8 -8q0 -5 -20 -25q-8 -9 -22 -23t-55.5 -51t-79.5 -65t-85.5 -51t-83.5 -23q-54 0 -92.5 30.5t-38.5 78.5l4 71q-49 -49 -82 -81 t-76.5 -71t-74 -59t-47.5 -20q-46 0 -88.5 42t-42.5 89z" />
<glyph unicode="b" horiz-adv-x="714" d="M-78 45q0 122 46 271t119 283t157.5 248t168.5 181.5t144 67.5q43 0 74 -29.5t31 -69.5q0 -181 -568 -739q-10 -35 -18 -78q80 120 195.5 207.5t187.5 87.5q36 0 73 -38.5t37 -74.5q0 -118 -108 -233q145 0 254 109q8 8 12 8q8 0 8 -8q0 -5 -20 -25q-117 -109 -260 -109 h-19q-51 -50 -111.5 -80t-111.5 -30q-47 0 -83 33t-36 69q0 27 23 43.5t55 16.5q22 0 125 -15q64 58 109 128t45 128q0 33 -21 33q-19 0 -60 -20t-94.5 -61.5t-104 -96.5t-92.5 -135.5t-56 -167.5q-3 -15 -19 -15q-26 0 -54 27t-28 84zM109 313q58 58 123 127t163 180.5 t160.5 208t62.5 146.5q0 7 -5.5 14.5t-18.5 7.5q-67 0 -167 -114t-187.5 -273t-130.5 -297zM143 102q0 -8 12.5 -16t26.5 -8q40 0 92 41q-75 10 -92 10q-39 0 -39 -27z" />
<glyph unicode="c" horiz-adv-x="542" d="M-74 84q0 73 38 153t94 140.5t120 99.5t115 39q40 0 73 -26.5t33 -65.5q0 -49 -57 -109q-6 -6 -37 -6q-4 0 -4 4q0 7 6 13q58 58 58 94q0 1 -1 2.5t-2.5 4t-5 4t-8.5 1.5q-37 0 -87.5 -33t-96.5 -83.5t-78.5 -118t-32.5 -129.5q0 -38 18 -59t48 -21q46 0 106.5 26 t114 62.5t100.5 73t75 62.5l28 26q8 8 12 8q3 0 5.5 -3t2.5 -5q0 -5 -20 -25q-12 -11 -32 -29.5t-78 -66t-111.5 -83.5t-119 -65.5t-112.5 -29.5q-66 0 -115 38.5t-49 106.5z" />
<glyph unicode="d" horiz-adv-x="655" d="M-96 68q0 72 64 174.5t145.5 176t130.5 73.5q47 0 90 -20.5t43 -35.5q0 -18 -17 -18q-55 0 -137.5 -78t-142.5 -175.5t-60 -152.5q0 -12 7 -12q94 0 327 233q9 156 93 352.5t202 337t213 140.5q35 0 58.5 -32.5t23.5 -74.5q0 -55 -122 -223t-296 -360q-1 -5 -5 -20 t-6 -21t-5.5 -21.5t-5 -25.5t-4 -26.5t-3.5 -32t-2 -35.5t-1 -41q0 -97 27.5 -169t64.5 -75q10 0 10 -12q0 -6 -9 -9.5t-18 -3.5q-79 0 -145.5 78t-69.5 234q-112 -109 -201.5 -172.5t-134.5 -63.5q-30 0 -72 38t-42 73zM543 436q148 165 252 312.5t104 185.5q0 4 -3.5 8 t-10.5 4q-50 0 -116 -79t-125 -194t-101 -237z" />
<glyph unicode="e" horiz-adv-x="475" d="M-59 164q0 66 31 136t76 122t94.5 85.5t86.5 33.5q42 0 68.5 -36t26.5 -61q0 -35 -68.5 -101.5t-157.5 -123.5q-6 -18 -6 -72q0 -48 19.5 -78t54.5 -30q31 0 74 20.5t82.5 49.5t74.5 58.5t57 50.5l21 20q8 8 12 8q9 0 9 -8q0 -4 -21 -25q-8 -9 -22.5 -24t-58 -53t-85 -67 t-96 -53t-98.5 -24q-80 0 -127 46.5t-47 125.5zM100 252q65 46 117.5 104.5t52.5 85.5q0 15 -10 15q-27 0 -72.5 -53.5t-87.5 -151.5z" />
<glyph unicode="f" horiz-adv-x="430" d="M-180 -315q0 235 123 561q-35 49 -35 119q0 33 28 59.5t54 26.5q19 0 43 -19q78 156 169 303.5t187.5 258t153.5 110.5q54 0 80 -38.5t26 -92.5q0 -46 -195 -288t-329 -368q37 -69 51 -167q30 -5 37 -5q134 0 217 93q8 8 10 8q4 0 7.5 -3t3.5 -5q0 -4 -21 -25 q-94 -94 -227 -94h-25v-19q0 -120 -40.5 -255.5t-91 -219.5t-81.5 -84q-42 0 -93.5 43.5t-51.5 100.5zM-80 -365q0 -51 17 -51q19 0 63 76.5t85 209t44 255.5q-39 12 -74 35q-58 -132 -96.5 -285.5t-38.5 -239.5zM-20 383q0 -27 6 -57l30 77q-7 17 -16 17q-3 0 -7 -3 t-8.5 -12t-4.5 -22zM72 190q21 -15 57 -26q-2 44 -25 110zM178 412q105 109 265.5 316t160.5 247q0 6 -5 15t-17 9q-29 0 -75.5 -52t-109.5 -153.5t-107.5 -180t-111.5 -201.5z" />
<glyph unicode="g" horiz-adv-x="718" d="M-248 -563q0 65 41 130t121 131t161.5 121.5t197.5 128.5l6 3q92 183 92 258q0 8 -6 8q-10 0 -74 -59.5t-135 -119.5q-69 -58 -96 -58h-1q-41 2 -85 38.5t-44 75.5q0 54 44.5 128.5t111.5 140t154.5 111.5t165.5 46q36 0 77 -40t41 -72q0 -22 -30 -60.5t-43 -38.5 q-5 0 -9 4.5t-4 8.5q0 3 20.5 34.5t20.5 53.5q0 7 -7 16.5t-19 9.5q-62 0 -162 -71.5t-176 -166.5t-76 -155q0 -7 6 -13.5t12 -6.5q30 0 108 63.5t147.5 126.5t80.5 63q29 0 65 -39t36 -73q0 -50 -23 -113q160 99 248 187q8 8 14 8q3 0 5.5 -3t2.5 -5q0 -3 -22 -25 q-105 -105 -266 -207q-42 -105 -106 -220.5t-140.5 -224.5t-163 -180t-158.5 -71q-56 0 -94.5 40t-38.5 87zM-203 -563q0 -9 7.5 -17t17.5 -8q61 0 144.5 79.5t157.5 187.5t138 231q-81 -51 -141.5 -92.5t-125 -93.5t-105 -96.5t-67 -94.5t-26.5 -96z" />
<glyph unicode="h" horiz-adv-x="786" d="M-61 8q0 112 51 256t131.5 277.5t171.5 248.5t178.5 184.5t144.5 69.5q42 0 74.5 -30t32.5 -56q0 -53 -52 -135t-137 -172.5t-160.5 -163.5t-158 -147.5t-94.5 -85.5q-34 -81 -39 -121q54 83 153.5 168.5t177 132.5t97.5 47q30 0 80.5 -45t50.5 -86q0 -19 -27 -54 t-59 -68t-59 -73t-27 -69t23 -29q51 0 124.5 45.5t121.5 90.5l48 45q9 8 15 8q3 0 5.5 -3t2.5 -5t-23 -25l-21.5 -21.5t-53 -47.5t-75.5 -59.5t-80 -47t-75 -21.5q-32 0 -76.5 39.5t-44.5 75.5q0 42 15 87t36.5 79.5t43 63.5t36.5 46.5t15 20.5q0 6 -4 6q-19 0 -72 -31 t-117.5 -79.5t-130.5 -120.5t-102 -142q-11 -22 -22 -45.5t-17 -37.5t-12 -26t-10 -17t-7 -5q-21 0 -47 26.5t-26 51.5zM147 317q2 2 102.5 96.5t185 179.5t162 189t77.5 158q0 10 -10 10q-71 0 -172 -99.5t-192 -243t-153 -290.5z" />
<glyph unicode="i" horiz-adv-x="417" d="M-76 86q0 53 102.5 220.5t112.5 193.5q15 30 39 30q35 0 66.5 -32.5t31.5 -63.5q0 -15 -59 -96t-117.5 -169t-58.5 -122q0 -27 22 -27q35 0 84.5 22.5t95 54.5t86 64t65.5 55l24 22q8 8 14 8q3 0 5.5 -3t2.5 -5q0 -3 -22 -25q-10 -10 -27.5 -26t-68 -57.5t-96 -73 t-100 -57.5t-91.5 -26q-30 0 -70.5 34t-40.5 79zM287 678q0 26 39 101.5t39 99.5q0 3 5.5 9.5t10.5 6.5q27 0 60.5 -42t33.5 -67q0 -11 -15.5 -37t-27.5 -32q-20 -10 -65 -25q-17 -5 -30 -14t-19.5 -15t-10.5 -6q-8 0 -14 7t-6 14z" />
<glyph unicode="j" horiz-adv-x="337" d="M-559 -467q0 32 33.5 73t101 93t134.5 97.5t169 109.5q74 170 120 343.5t46 254.5q0 6 1 9.5t8.5 8t21.5 4.5q28 0 76.5 -34t48.5 -70q0 -38 -44 -156.5t-114 -263.5q180 121 295 236q6 8 12 8q3 0 5.5 -3t2.5 -5q0 -5 -20 -25q-146 -140 -318 -258q-255 -543 -454 -543 q-43 0 -84 42t-41 79zM-506 -492q0 -11 9.5 -23.5t21.5 -12.5q73 0 168 113t172 278q-173 -116 -272 -205.5t-99 -149.5zM145 678q0 26 39 102t39 99q0 14 15 14q27 0 60.5 -41.5t33.5 -65.5q0 -33 -68 -84t-94 -51q-11 0 -18 8.5t-7 18.5z" />
<glyph unicode="k" horiz-adv-x="761" d="M-59 25q0 127 84 310t197 339.5t232 268.5t185 112q33 0 61.5 -29.5t28.5 -69.5q0 -144 -584 -675q-31 -45 -51 -121q74 88 218 206.5t194 118.5q45 0 75.5 -44.5t30.5 -84.5q0 -39 -50 -85t-110.5 -79t-110.5 -60.5t-50 -33.5t21 -17.5t56.5 -21.5t67.5 -10 q65 0 146.5 47.5t130.5 94.5l49 47q8 8 12 8q8 0 8 -8q0 -5 -20 -25q-9 -10 -25.5 -27t-61.5 -60t-84.5 -76t-85 -60t-73.5 -27q-47 0 -105.5 38.5t-96 83t-37.5 65.5q0 17 78.5 74t157.5 118.5t79 87.5q0 6 -4 6q-47 0 -188.5 -111t-229.5 -225q-20 -25 -34 -47.5 t-19.5 -35t-9.5 -21.5t-7 -12.5t-8 -3.5q-14 0 -40.5 17t-26.5 28zM162 334q180 161 355 353t175 257q0 8 -10 8q-56 0 -159.5 -100t-204.5 -245.5t-156 -272.5z" />
<glyph unicode="l" horiz-adv-x="460" d="M-33 86q0 138 64 315t153 322t187.5 245.5t163.5 100.5q48 0 79 -36.5t31 -82.5q0 -58 -89.5 -187.5t-204 -258t-220.5 -228.5q-45 -120 -45 -204q0 -32 12.5 -45t26.5 -13q41 0 125 56t148 112l63 56q8 8 12 8q8 0 8 -8q0 -5 -20 -25q-11 -10 -29.5 -27t-70.5 -60.5 t-97.5 -77t-97.5 -60.5t-84 -27q-45 0 -80 33t-35 92zM145 330q88 88 188 204.5t182.5 240t82.5 177.5q0 5 -4.5 11t-13.5 6q-49 0 -142 -118t-176.5 -268.5t-116.5 -252.5z" />
<glyph unicode="m" horiz-adv-x="1064" d="M-96 82q0 33 34.5 91.5t90 141.5t84.5 142q13 26 39 26q31 0 56 -41t25 -80q0 -11 -19.5 -44.5t-44 -70t-26.5 -40.5l17.5 17.5t44.5 43.5t64 61t70 65t70 61.5t57 43t36 17.5q33 0 78 -39t45 -86q0 -31 -22.5 -68t-45 -63t-22.5 -29q186 136 217 136t60.5 -48.5 t29.5 -95.5q0 -20 -21 -48t-45.5 -52.5t-45.5 -57.5t-21 -61q0 -14 12 -14q49 0 135 62t148 124l61 62q6 8 12 8q4 0 7 -3t3 -5q0 -3 -22 -25q-10 -11 -28 -29t-68 -64t-93 -81.5t-91.5 -64.5t-75.5 -29q-38 0 -80.5 35t-42.5 79q0 29 23.5 71.5t51 76.5t51 66t23.5 42 q0 4 -4 4q-19 0 -98.5 -52t-130.5 -101q-18 -17 -43 -43.5t-38 -38.5t-18 -12q-24 0 -51.5 32t-27.5 54q0 24 46 91t92 132.5t46 85.5q0 4 -4 4q-37 0 -201 -153t-221 -224q-15 -19 -30.5 -39.5t-24 -32.5t-17 -22.5t-14.5 -15t-12 -4.5q-24 0 -52 33t-28 69z" />
<glyph unicode="n" horiz-adv-x="761" d="M-135 45q0 15 58.5 102.5t117.5 187.5t59 146q0 25 21 25q31 0 66.5 -36.5t35.5 -74.5q0 -9 -3.5 -20.5t-12.5 -28t-17 -29.5t-23.5 -39t-25.5 -42q89 64 193 124t153 60q27 0 50.5 -37t23.5 -61q0 -7 -25.5 -38t-56.5 -67t-56.5 -84.5t-25.5 -85.5q0 -20 21 -20 q38 0 87.5 21.5t93 52.5t81.5 62.5t60 52.5l22 22q8 8 12 8t7 -3t3 -5t-5.5 -8t-10.5 -12l-6 -5q-10 -10 -26.5 -26t-63.5 -57t-88 -72.5t-88.5 -57t-77.5 -25.5q-42 0 -85.5 45t-43.5 93q0 40 21.5 91t43 87.5t21.5 40.5t-4 4q-10 0 -51.5 -20.5t-104.5 -62.5t-115 -89 q-55 -50 -93 -105.5t-53 -84.5t-22 -29q-16 0 -41.5 35t-25.5 65z" />
<glyph unicode="o" d="M-33 131q0 55 23 113q0 2 -1 6.5t-1 7.5q0 62 31.5 119.5t78 95.5t98.5 61t95 23q70 0 118 -40.5t48 -104.5q0 -174 -172 -326q74 5 149.5 50t132.5 102q7 8 13 8q4 0 7 -3t3 -5t-23 -25q-32 -30 -53 -47t-63.5 -45.5t-91.5 -44t-103 -17.5q-89 -71 -145 -71 q-45 0 -94.5 39.5t-49.5 103.5zM37 334q48 56 96 100q73 64 109 64q18 0 46.5 -39t28.5 -58q0 -13 -26 -26q-64 -38 -131.5 -101.5t-98.5 -126.5q53 -59 158 -65q69 63 116.5 152.5t47.5 183.5q0 51 -29 77.5t-82 26.5q-66 0 -138 -58t-97 -130zM39 80q0 -28 14 -45t37 -17 q43 0 103 41q-94 14 -148 62q-6 -16 -6 -41z" />
<glyph unicode="p" horiz-adv-x="706" d="M-311 -477q0 78 44.5 201.5t108 249.5t127 244t108 209t44.5 120q0 18 26 18q23 0 56 -38.5t33 -63.5q0 -31 -91 -182q56 66 142.5 142.5t132.5 76.5q43 0 86 -52.5t43 -103.5q0 -106 -129 -225q81 0 160.5 37t126.5 82q8 8 12 8q8 0 8 -8q0 -5 -20 -25 q-128 -119 -312 -123q-61 -45 -130.5 -73.5t-117.5 -28.5t-87 20t-50 47q-235 -412 -235 -600q0 -18 -19 -18q-16 0 -41.5 30t-25.5 56zM39 86q0 -17 15.5 -28t41.5 -11q51 0 121 64q-73 20 -106 20q-35 0 -53.5 -12.5t-18.5 -32.5zM80 168q32 0 162 -29q67 72 119.5 160.5 t52.5 126.5q0 20 -17 20q-22 0 -61.5 -27.5t-92 -79.5t-84.5 -85.5t-79 -85.5z" />
<glyph unicode="q" horiz-adv-x="575" d="M-74 98q0 71 76 168t185 168.5t192 71.5q52 0 95.5 -39t43.5 -72q0 -29 -24 -77t-33 -48q-12 0 -26.5 5.5t-14.5 13.5q0 3 28.5 43.5t28.5 68.5q0 7 -10.5 17t-24.5 10q-68 0 -164.5 -73.5t-164.5 -161.5t-68 -132q0 -8 6 -8q23 0 102 53.5t152.5 106.5t83.5 53 q15 0 51.5 -45t36.5 -61q0 -2 -19.5 -21.5t-60.5 -71t-82 -118.5q16 -16 24 -25t15.5 -23t7.5 -28q0 -35 -19.5 -90t-42 -99.5t-59 -114t-51.5 -99.5q-26 -53 -43 -101.5t-22 -67t-10 -18.5q-9 0 -18 3t-21.5 15t-21 32.5t-15 59.5t-6.5 91q0 75 25 172t61 181.5t71.5 158.5 t60.5 117l25 43q-15 -10 -81.5 -58t-112 -76t-64.5 -28q-25 0 -58.5 32.5t-33.5 71.5zM117 -588q76 133 127 271t53 190q0 27 -4 37q-69 -120 -122.5 -268.5t-53.5 -229.5z" />
<glyph unicode="r" horiz-adv-x="557" d="M-18 213q0 3 18 25q127 138 164 192q-119 44 -119 94q0 52 55.5 98t96.5 46q22 0 54 -23.5t32 -38.5q0 -33 -21 -71t-63 -95q18 -9 71.5 -26.5t83 -34.5t29.5 -41q0 -26 -23 -64.5t-50.5 -71t-50.5 -69.5t-23 -61q0 -39 30 -39q38 0 111 51.5t127 102.5l53 51q8 8 10 8 q8 0 8 -10q0 -5 -18 -23l-24 -24t-57.5 -53.5t-80 -68t-81.5 -53.5t-72 -24q-50 0 -96 37t-46 79q0 41 17 86.5t37.5 77.5t37.5 64.5t17 50.5q0 23 -23 37q-65 -83 -186 -209q-8 -8 -10 -8q-8 0 -8 8zM160 496q0 -32 20 -45q58 88 58 145q0 6 -9 6q-15 0 -42 -33.5 t-27 -72.5z" />
<glyph unicode="s" horiz-adv-x="417" d="M-145 125q0 31 32 31q13 0 80 -11.5t125 -13.5q12 40 12 70q0 71 -12 106q-21 -24 -36.5 -40t-32 -31.5t-23.5 -22.5q-6 -6 -10 -6q-8 0 -8 8q0 5 18 23q33 29 82 90q-23 62 -23 88q0 54 54.5 108t95.5 54q24 0 53 -31t29 -55q0 -10 -21 -28t-45.5 -36t-45.5 -41.5 t-21 -42.5q0 -45 32.5 -102t36.5 -103q112 20 191 99q8 8 12 8q3 0 5.5 -3t2.5 -5q0 -5 -20 -25q-74 -74 -189 -98q0 -63 -65 -117.5t-139 -54.5q-70 0 -120 65.5t-50 116.5zM-102 117q0 -8 6.5 -21.5t27 -28t50.5 -14.5q20 0 32.5 1.5t33 14.5t34.5 37q-39 3 -100.5 12 t-73.5 9q-10 0 -10 -10z" />
<glyph unicode="t" horiz-adv-x="256" d="M-76 -12q0 71 23.5 157.5t70 187.5t86.5 177t101 184q-30 -5 -54 -13t-35 -13.5t-12 -5.5q-14 0 -31.5 21t-17.5 32t13 16q51 21 176 35q98 171 115 212q16 39 16 62q0 29 26 29q28 0 65.5 -55t37.5 -99q0 -19 -88 -141h33q44 0 100 -7t91.5 -14.5t35.5 -9.5 q0 -6 -3.5 -12t-6.5 -6l-10 1q-10 2 -28 4.5t-40.5 5t-52.5 4t-60 1.5q-25 0 -47 -2t-32 -4l-9 -2q-48 -67 -71 -100.5t-72.5 -107.5t-77 -121.5t-65.5 -118t-58.5 -123.5t-35.5 -112.5t-15 -108.5q0 -63 22.5 -92t69.5 -29q8 0 16.5 -10t8.5 -15q0 -10 -27 -10 q-53 0 -105.5 55.5t-52.5 147.5z" />
<glyph unicode="u" horiz-adv-x="786" d="M-86 63q0 59 51 148t106.5 167t61.5 99q6 23 23 23q28 0 66 -42t38 -81q0 -19 -55 -96.5t-110.5 -162.5t-55.5 -120q0 -10 8 -10q23 0 70 37.5t99.5 91.5l105 108t96.5 91.5t63 37.5q27 0 53.5 -35.5t26.5 -62.5q0 -13 -36 -84t-36 -88q0 -14 15 -14q48 0 118.5 42 t117.5 84l46 42q9 8 15 8q3 0 5.5 -3t2.5 -5t-23 -25q-8 -8 -22 -20.5t-54 -45t-77 -57t-83.5 -45t-80.5 -20.5q-41 0 -76 24t-35 72q0 29 8.5 58t8.5 42q0 6 -8 6q-5 0 -73.5 -72.5t-146 -145t-104.5 -72.5q-37 0 -83 37t-46 89z" />
<glyph unicode="v" horiz-adv-x="509" d="M-66 53q0 50 74 220.5t74 203.5q0 23 29 23q30 0 63 -36t33 -75q0 -40 -76 -189.5t-76 -183.5q0 -4 4 -4q23 0 81.5 46t122 114.5t112.5 163.5t49 178q0 20 -5 40t-5 24q0 12 14 12q16 0 43 -35.5t27 -75.5q0 -67 -41 -143.5t-102 -140t-126.5 -117t-118.5 -83.5t-75 -30 q-23 0 -62 30.5t-39 57.5z" />
<glyph unicode="w" horiz-adv-x="786" d="M-66 96q0 43 28.5 101.5t63 106t63 101t28.5 87.5q0 6 1 9.5t7 7t18 3.5q26 0 59.5 -34.5t33.5 -71.5q0 -28 -31.5 -81t-69 -104t-69 -111t-31.5 -100q0 -14 12 -14q31 0 116 81t159 193q14 18 30.5 45t26 39.5t16.5 12.5q18 0 56 -34t38 -59q0 -12 -32.5 -74t-32.5 -100 q0 -43 31 -43q52 0 103.5 66t82.5 156t31 163q0 41 -6 66t-11.5 35t-5.5 14q0 10 15 10q25 0 57.5 -29t32.5 -79q0 -72 -50.5 -175.5t-123.5 -181t-129 -77.5q-57 0 -100.5 35t-43.5 92l6 55q-8 -10 -21 -26.5t-49 -59t-67 -75t-64 -59t-51 -26.5q-42 0 -84.5 40t-42.5 95z " />
<glyph unicode="x" horiz-adv-x="714" d="M-78 18q0 9 8 9q3 0 13 -2t18 -2q18 0 33 4.5t58 31t108 78.5q0 62 45 167.5t45 135.5q0 4 -4 4q-13 0 -54 -38.5t-192 -192.5q-8 -8 -10 -8q-8 0 -8 8q0 7 18 25q48 48 94.5 98.5t71 77.5t48 50.5t38 32.5t27.5 9q24 0 64 -42t40 -73q0 -33 -23 -123q91 90 137 169.5 t46 127.5q0 4 -1 10t-1 9q0 12 16 12q19 0 45.5 -23t26.5 -43q0 -27 -78 -111.5t-199 -191.5q-6 -30 -6 -65q0 -111 57 -111q33 0 77.5 19.5t84 46.5t74.5 54.5t55 46.5l21 20q8 8 12 8q8 0 8 -8q0 -5 -20 -25q-8 -8 -22.5 -22t-57 -49.5t-82.5 -62.5t-91.5 -49t-92.5 -22 q-29 0 -57 3.5t-62 12.5t-57.5 30t-28.5 52q-143 -123 -158 -133q-12 -8 -18 -8q-23 0 -44.5 20t-21.5 33z" />
<glyph unicode="y" horiz-adv-x="626" d="M-395 -584q0 76 54 149.5t139.5 128.5t184 95t195.5 59q38 77 72 153.5t48 114.5l15 38q-60 -56 -148 -110t-126 -54q-32 0 -72.5 34t-40.5 91q0 39 49 115.5t98.5 148.5t49.5 100q0 21 24 21q25 0 68 -37.5t43 -65.5q0 -23 -106.5 -173t-106.5 -183q0 -10 12 -10 q38 0 132.5 62.5t166.5 148.5q35 43 91.5 123.5t90.5 119.5t58 39q10 0 23.5 -19.5t13.5 -29.5q0 -3 -2 -5.5t-6.5 -5.5t-6.5 -5q-43 -30 -70 -69.5t-59 -129.5q-96 -266 -157 -395h8q55 0 95 -18t54.5 -37t14.5 -33q0 -10 -12 -10q-3 0 -10.5 9t-18.5 19.5t-40 19.5t-69 9 q-25 0 -43 -2q-55 -114 -109.5 -202t-123.5 -168.5t-150 -124.5t-168 -44q-69 0 -112 39.5t-43 93.5zM-362 -584q0 -35 22 -54t53 -19q58 0 119.5 38.5t119 107.5t107 145t97.5 169q-138 -27 -255.5 -84t-190 -137.5t-72.5 -165.5z" />
<glyph unicode="z" horiz-adv-x="512" d="M-225 -602q0 96 152.5 224t336.5 194q21 93 21 149q0 113 -80 113q-24 0 -53 -20.5t-31 -20.5q-15 0 -37.5 26t-22.5 43q0 18 41.5 59.5t91 85.5t91 99t41.5 96q0 13 -9 13q-34 0 -101 -49t-120.5 -100t-95.5 -97q-8 -8 -12 -8q-8 0 -8 8q0 5 20 25q1 1 41.5 43.5 t71 71.5t75 68.5t81.5 61t61 21.5q42 0 83.5 -40.5t41.5 -72.5q0 -44 -38 -93t-103 -109.5t-87 -86.5q21 0 53 -15t65.5 -41.5t57 -70.5t23.5 -94l-4 -47q40 0 65 -4.5t31 -9t6 -8.5q0 -5 -5 -14t-9 -9q-1 0 -11.5 5.5t-31.5 11.5t-47 6q-25 -121 -105.5 -243t-196.5 -204 t-227 -82q-46 0 -81 34t-35 81zM-172 -625q0 -24 12.5 -36.5t26.5 -12.5q63 0 126 40.5t113.5 107t90 149t61.5 168.5q-100 -40 -199 -111.5t-165 -155t-66 -149.5z" />
<glyph unicode="{" horiz-adv-x="501" d="M12 629q0 22 45 51q74 49 74 217q0 124 9.5 193.5t35.5 119.5q31 60 87 88.5t102 28.5q59 0 59 -18q0 -19 -31 -19q-39 0 -68 -32t-41 -71t-12 -73q0 -57 8.5 -141.5t8.5 -136.5q0 -36 -17 -71t-41.5 -59.5t-49 -44t-41.5 -29.5l-17 -9q7 -3 18 -9t39.5 -26t50.5 -42 t40 -56t18 -70q0 -52 -8.5 -137t-8.5 -142q0 -77 39.5 -126.5t77.5 -49.5q7 0 21 -5t14 -13q0 -19 -59 -19q-46 0 -102 28.5t-87 88.5q-26 50 -35.5 119.5t-9.5 193.5q0 162 -78 213q-41 26 -41 58z" />
<glyph unicode="|" horiz-adv-x="239" d="M47 1323q0 14 21 14q122 0 122 -53q0 -5 -5 -464t-5 -576t8.5 -212t8.5 -100q0 -31 -32 -49t-54 -18q-35 0 -35 18q0 1 2 22t4 63t2 95q0 97 -14.5 643t-18.5 582l-2 16l-1.5 12t-0.5 7z" />
<glyph unicode="}" horiz-adv-x="501" d="M76 -53q0 18 30 18q39 0 68 32t41 71t12 73q0 57 -8 142t-8 137q0 36 17 70t41.5 57t49 41t41.5 26l17 9q-7 4 -18 10.5t-39.5 28t-50.5 45t-40 58.5t-18 71q0 52 8 136.5t8 141.5q0 77 -39 126.5t-77 49.5q-6 0 -20.5 5.5t-14.5 13.5q0 18 59 18q46 0 102 -28.5 t87 -88.5q26 -50 35.5 -119.5t9.5 -193.5q0 -169 73 -217q45 -29 45 -51q0 -32 -41 -58q-77 -51 -77 -213q0 -124 -9.5 -193.5t-35.5 -119.5q-31 -60 -87 -88.5t-102 -28.5q-59 0 -59 19z" />
<glyph unicode="~" horiz-adv-x="1044" d="M29 553q0 12 17 44t46 70t78 66.5t102 28.5q60 0 151 -37.5t170.5 -82.5t172.5 -82.5t156 -37.5q19 0 32 8t17 15t10 20q6 17 12 17q15 0 15 -25q0 -34 -38.5 -69t-97.5 -35t-142.5 20t-157.5 44.5t-173.5 44.5t-185.5 20q-44 0 -79.5 -12.5t-56.5 -25t-28 -12.5 q-8 0 -14 6t-6 15z" />
<glyph unicode="&#xa1;" horiz-adv-x="528" d="M-137 -283q0 6 6.5 18t16.5 27.5t12 18.5q52 90 174 293t197 333.5t87 170.5q4 18 17 18q12 0 24.5 -21t12.5 -43q0 -36 -104.5 -250t-209 -425t-104.5 -238q0 -18 -19 -18q-22 0 -66 46t-44 70zM385 700q0 4 32 42t32 61q0 18 18 18q11 0 38 -23.5t27 -41.5 q0 -31 -25 -77t-44 -46q-29 0 -53.5 26.5t-24.5 40.5z" />
<glyph unicode="&#xa2;" horiz-adv-x="575" d="M2 387q0 80 32.5 159.5t80 136t102 91.5t98.5 35q28 0 56 -4q15 113 16 129q3 22 31 22q26 0 52 -24t26 -39q0 -7 -10 -22.5t-26 -40.5t-26 -48q56 -24 84.5 -72.5t28.5 -109.5q0 -10 -12 -23.5t-23 -13.5q-16 0 -16 21q0 18 -2 36.5t-7.5 43t-18.5 40t-32 15.5 q-22 0 -67 -34.5t-92.5 -88.5t-83 -132.5t-35.5 -152.5q0 -65 45 -65q41 0 87 25t78 55t57.5 55t29.5 25q13 0 19.5 -8.5t6.5 -20.5q0 -14 -39.5 -63t-97 -95.5t-96.5 -46.5q-13 0 -25 2q-12 -41 -24 -141q-3 -25 -35 -25q-21 0 -50.5 23.5t-29.5 40.5q0 7 14.5 24.5 t34 44.5t29.5 52q-60 30 -110 86.5t-50 107.5z" />
<glyph unicode="&#xa3;" horiz-adv-x="991" d="M-8 8q0 12 12.5 24t33 21.5t44.5 18t48.5 14.5t44.5 10.5t32 7.5l12 2q112 79 205 363q-67 -33 -96 -33q-38 0 -70.5 40t-32.5 75q0 24 23 24q2 0 17 -3t24 -3q20 0 45.5 4.5t62.5 12.5t62 12q20 64 45.5 155.5t32.5 114.5q36 111 122.5 184.5t192.5 73.5q34 0 71 -16 t59 -34t22 -27q0 -19 -19 -19q-3 0 -22.5 7t-42.5 7q-18 0 -45 -12.5t-60.5 -38t-66 -76.5t-52.5 -118q-52 -183 -53 -185h37q56 0 81 -26t25 -53q0 -19 -14 -19q-11 0 -16 14q-8 21 -66 21q-36 0 -72 -8q-33 -94 -68.5 -173t-61.5 -125.5t-49.5 -80.5t-35 -46.5 t-16.5 -15.5l7 -2q7 -1 24 -3.5t42.5 -5t71 -4t101.5 -1.5q58 0 110.5 12t86.5 29t59 33.5t39 28.5t16 12q11 0 18 -7.5t7 -19.5q0 -5 -11.5 -27.5t-36 -55.5t-56.5 -63.5t-80 -52.5t-99 -22q-88 0 -168.5 20t-151 40t-135.5 20q-47 0 -86 -4t-62 -9.5t-39 -10.5t-23.5 -9 t-8.5 -4q-20 0 -20 12z" />
<glyph unicode="&#xa5;" horiz-adv-x="813" d="M-41 371q0 18 21 18q3 0 15.5 -7.5t47 -16t90.5 -11.5q9 23 22.5 47.5t18.5 34.5q-68 -8 -158 -8q-12 0 -28.5 52.5t-16.5 92.5q0 8 7 15.5t14 7.5q6 0 19.5 -5.5t32 -12t71 -12t127.5 -5.5l14 25q-41 72 -41 174q0 63 -10.5 166t-38.5 211t-66 120q-18 5 -18 23 q0 14 33 14q17 0 39.5 -5.5t53 -21.5t56.5 -40.5t46.5 -67.5t25.5 -98q12 -122 12 -240l-2 -76q5 7 13 20t33 52t50.5 77t60.5 90t66.5 96t66.5 89.5t62.5 77.5t51 52t36.5 20q25 0 65 -49.5t40 -69.5q0 -18 -8.5 -28t-28.5 -21q-65 -40 -213.5 -208t-267.5 -374 q36 3 85.5 8.5t82 9t47.5 3.5q6 0 11 -5t5 -12q0 -15 -20 -32t-54 -25q-27 -7 -72.5 -19t-79 -20.5t-61.5 -13.5q-38 -79 -51 -111q60 1 158 8t117 7q6 0 11 -5t5 -12q0 -14 -21.5 -36.5t-54.5 -22.5q-29 0 -56.5 -2t-46.5 -4.5t-45 -7.5t-36.5 -7.5t-36.5 -9.5t-31 -8 q-53 -154 -53 -291q0 -33 -41 -33q-18 0 -64 36t-46 61q0 70 53 202h-31q-30 0 -51.5 28t-29 59t-7.5 57z" />
<glyph unicode="&#xa6;" horiz-adv-x="251" d="M33 567q0 11 49.5 27t89.5 16q11 0 17 -8.5t6 -17.5q0 -4 -7.5 -20.5t-14.5 -63t-7 -123.5q0 -67 12 -260.5t12 -212.5q0 -7 -6.5 -15t-17.5 -8q-10 0 -24.5 20t-24.5 54q-38 133 -61 298t-23 314zM45 1290q0 43 45 69.5t92 26.5q29 0 29 -26q0 -7 -5 -18.5t-11.5 -27 t-11.5 -58t-5 -103.5q0 -67 5 -239t5 -191q0 -29 -24 -29q-15 0 -34 22t-19 60q0 118 -33 280.5t-33 233.5z" />
<glyph unicode="&#xa7;" horiz-adv-x="759" d="M45 125q0 42 16.5 84t39 70.5t43.5 46.5t32 18q9 0 15 -5t6 -13q0 -7 -11.5 -28.5t-22.5 -64t-11 -100.5q0 -38 35 -77.5t77 -39.5q83 0 172.5 88t89.5 168q0 78 -28.5 116.5t-98.5 62.5q-16 5 -47.5 15.5l-48 16t-43.5 16t-41.5 19t-33 22.5t-28 29t-16 35t-6.5 43 q0 24 8 47t19 38t22 27t19 17l8 6q-25 29 -25 70q0 60 38 110.5t95.5 80t117.5 45.5t110 16q67 0 119.5 -23t52.5 -63q0 -24 -43 -112.5t-62 -88.5q-9 0 -16.5 6t-7.5 15q0 1 1.5 16.5t3.5 40.5t3 47q2 37 2 84q-1 14 -13 21.5t-24 7.5q-24 0 -61.5 -19.5t-73.5 -50.5 t-62 -77t-26 -93q0 -43 37.5 -78.5t90.5 -61t106 -51.5t90.5 -62t37.5 -79q0 -28 -6 -53.5t-12 -37.5l-6 -11q27 -31 27 -74q0 -73 -41.5 -136t-106.5 -103t-141 -63t-148 -23q-85 0 -154 39.5t-69 103.5zM252 639q0 -25 13 -45t40 -35.5t48 -24.5t58.5 -21t49.5 -17 q109 -39 117 -43q0 24 -23 67.5t-63 67.5l-224 133q-16 -16 -16 -82z" />
<glyph unicode="&#xa8;" horiz-adv-x="468" d="M27 651q0 5 25.5 67t25.5 81q0 37 24 37q22 0 71.5 -50.5t49.5 -76.5q0 -30 -69 -57t-99 -27q-28 0 -28 26zM242 647q0 4 9 22.5t22.5 48t21.5 52.5q1 4 5.5 18.5t7.5 21.5t7.5 17t9.5 14.5t11 4.5q26 0 70.5 -40.5t44.5 -80.5q0 -36 -71 -69t-112 -33q-26 0 -26 24z" />
<glyph unicode="&#xa9;" horiz-adv-x="1069" d="M33 633q0 126 62.5 252.5t157 218.5t207.5 149.5t212 57.5q53 0 96 -43q27 0 70 -25.5t86 -66.5t73.5 -103t30.5 -125q0 -92 -25.5 -189.5t-76.5 -189.5t-120 -164.5t-164.5 -116.5t-201.5 -44q-69 0 -140.5 27.5t-131 75.5t-97.5 123.5t-38 162.5zM131 565 q0 -115 70.5 -182.5t156.5 -67.5q116 0 224.5 66.5t183 167.5t119.5 220.5t45 225.5q0 60 -19 109t-46 76t-52.5 41t-42.5 14q0 -2 -0.5 -5.5t-4 -11.5t-9.5 -14.5t-18 -12t-29 -5.5q-83 0 -186 -60t-188.5 -150t-144.5 -202.5t-59 -208.5zM197 623q0 100 77.5 210.5 t192 183.5t215.5 73q57 0 108.5 -55.5t51.5 -112.5q0 -39 -51 -88.5t-76 -49.5q-11 0 -18 7t-7 16q0 7 18.5 30.5t37 61t18.5 80.5q0 12 -5.5 17t-23.5 5q-38 0 -109.5 -42t-143 -104t-124.5 -143t-53 -149q0 -53 28 -90t77 -37q61 0 125 29t103 57.5t40 28.5q14 0 14 -23 q0 -9 -25 -33t-61.5 -49.5t-83 -45t-82.5 -19.5q-98 0 -170.5 73.5t-72.5 168.5z" />
<glyph unicode="&#xaa;" horiz-adv-x="720" d="M-14 895q0 79 79.5 183t191 177.5t196.5 73.5q59 0 110 -41t51 -78q0 -23 -6 -39t-14 -16q-5 0 -14 9t-9 16q0 3 5.5 13.5t5.5 20.5q0 7 -10.5 17t-22.5 10q-67 0 -148.5 -47.5t-146 -113t-108.5 -137.5t-44 -120q0 -18 15 -18q49 0 280 231q111 111 138 111 q16 0 48.5 -36.5t32.5 -59.5q0 -9 -23 -35t-46 -59.5t-23 -59.5q0 -35 25 -35q32 0 84 43q30 25 35 25q10 0 10 -12q0 -6 -25 -27q-92 -76 -135 -76q-55 0 -90 28t-35 81l6 75q-53 -53 -83 -82t-76 -71t-76 -62t-47 -20q-46 0 -88.5 42t-42.5 89z" />
<glyph unicode="&#xab;" horiz-adv-x="796" d="M12 465q0 61 29 131.5t70.5 128t85.5 106t77 76t41 27.5q28 0 71.5 -58t43.5 -83q0 -7 -28.5 -30.5t-69 -59t-81 -79.5t-69 -103.5t-28.5 -119.5q0 -67 29 -127t70 -99.5t82 -68.5t70 -45.5t29 -19.5q0 -14 -7 -21.5t-28 -7.5q-4 0 -26.5 10t-57.5 30.5t-75 48.5 t-80.5 67t-73.5 83t-53.5 100t-20.5 114zM295 442q0 61 33 134t81 134t98 113t87 81.5t45 29.5q31 0 73 -57.5t42 -83.5q0 -7 -33 -32.5t-79.5 -64.5t-93 -86t-79.5 -109t-33 -122q0 -57 24 -107t59.5 -84t77.5 -62t77.5 -44t59.5 -27t24 -14q0 -14 -7 -21.5t-28 -7.5 q-6 0 -37.5 12.5t-80.5 35.5t-102.5 61t-100 83t-77 108t-30.5 130z" />
<glyph unicode="&#xac;" horiz-adv-x="960" d="M20 791q0 22 19 22q7 0 26 -8.5t54.5 -17.5t81.5 -9q208 0 434 13.5t235 13.5q22 0 45 -50t23 -75q0 -5 -12 -25t-35.5 -56.5t-38.5 -61.5q-16 -27 -36 -67t-31 -59.5t-15 -19.5t-32 -13t-36 -13q-24 0 -24 24q0 23 63.5 146t63.5 135q0 7 -4 8.5t-19 1.5 q-162 0 -400 -24.5t-267 -24.5q-28 0 -48.5 19.5t-29.5 48t-13 52t-4 40.5z" />
<glyph unicode="&#xad;" horiz-adv-x="632" d="M35 395q0 27 16 27q5 0 15 -10q21 -21 65 -21q123 0 240.5 12.5t146.5 12.5q40 0 60 -27t20 -55q0 -17 -12 -17q-8 0 -13 9q-12 28 -59 28q-71 0 -206 -48t-175 -48q-34 0 -66 53t-32 84z" />
<glyph unicode="&#xae;" horiz-adv-x="1069" d="M33 633q0 126 62.5 252.5t157 218.5t207.5 149.5t212 57.5q53 0 96 -43q27 0 70 -25.5t86 -66.5t73.5 -103t30.5 -125q0 -92 -25.5 -189.5t-76.5 -189.5t-120 -164.5t-164.5 -116.5t-201.5 -44q-69 0 -140.5 27.5t-131 75.5t-97.5 123.5t-38 162.5zM131 565 q0 -115 70.5 -182.5t156.5 -67.5q171 0 314 140q-47 14 -123.5 70.5t-116.5 109.5q-20 29 -20 45q0 13 11 18t34 10q4 1 6 1q99 30 206 100t107 121q0 27 -23 39t-77 12q-57 0 -101 -8q9 -12 9 -23q0 -5 -46 -71.5t-101.5 -147.5t-101.5 -176.5t-46 -151.5q0 -18 4 -39 t4 -22q0 -4 -4 -4q-12 0 -27.5 27.5t-15.5 58.5q0 64 25.5 146.5t55 143.5t66 132t45.5 92q-39 -16 -45 -16q-13 0 -29 23.5t-16 41.5q0 13 39.5 28t106 26.5t133.5 11.5q82 0 145.5 -55.5t63.5 -137.5q0 -41 -55.5 -95t-139 -93t-153.5 -39q37 -43 101 -77t116 -34 q14 0 30 4q86 105 138.5 236t52.5 233q0 60 -19 109t-46 76t-52.5 41t-42.5 14q0 -2 -0.5 -5.5t-4 -11.5t-9.5 -14.5t-18 -12t-29 -5.5q-86 0 -189.5 -59t-188.5 -148t-142.5 -202t-57.5 -212z" />
<glyph unicode="&#xaf;" horiz-adv-x="585" d="M31 760q0 26 20 26q4 0 22 -8t65 -16t122 -8q71 0 164 10t96 10q25 0 25 -22q0 -12 -16.5 -21.5t-59.5 -23.5q-268 -86 -391 -86q-13 0 -30 48.5t-17 90.5z" />
<glyph unicode="&#xb0;" horiz-adv-x="421" d="M12 834q0 97 90.5 186.5t167.5 89.5q41 0 91.5 -48.5t50.5 -92.5q0 -49 -39.5 -121.5t-98.5 -128t-106 -55.5q-49 0 -102.5 53.5t-53.5 116.5zM121 774q0 -45 33 -45q42 0 120 87t78 140q0 6 -1.5 12t-2.5 8l-2 3l-2.5 -5t-9.5 -12t-19 -17t-31.5 -18t-45.5 -18 q-52 -16 -84.5 -59.5t-32.5 -75.5z" />
<glyph unicode="&#xb1;" horiz-adv-x="757" d="M-8 256q0 11 8.5 17t17.5 6q4 0 20.5 -7.5t63 -14.5t123.5 -7q67 0 260 12t213 12q7 0 15 -6.5t8 -17.5q0 -10 -20 -24.5t-54 -24.5q-131 -38 -300.5 -61t-311.5 -23q-11 0 -27 49.5t-16 89.5zM2 684q0 35 33 35q141 0 260 2q-4 76 -25 219q-3 19 -16.5 42.5t-13.5 31.5 q0 33 41 33q44 0 93.5 -34t49.5 -75q0 -24 -18 -215q246 4 284 4q39 0 39 -22t-43 -29q-66 -15 -291 -49q-18 -203 -18 -250q0 -58 -31 -58q-15 0 -27 33q-4 9 -16 226q0 5 -1 15t-1 15q-151 -28 -164 -33q-22 -9 -36 -20.5t-21 -11.5q-14 0 -46 59t-32 82z" />
<glyph unicode="&#xb2;" horiz-adv-x="765" d="M14 571q0 27 49 53.5t117 26.5q36 0 94 -14q141 108 254 280t113 300q0 23 -13.5 39t-33.5 16q-60 0 -145.5 -47.5t-149 -113.5t-63.5 -114q0 -17 4 -32l4 -15q0 -16 -19 -16q-13 0 -43 38t-30 70q0 57 42 114t102.5 97t126 65t112.5 25q68 0 131 -79t63 -154 q0 -111 -106 -253.5t-246 -246.5q51 -10 141 -10q41 0 85 18t72 36t32 18t8 -5.5t4 -9.5q0 -6 -55 -61q-5 -5 -14.5 -12.5t-15.5 -13t-7 -9.5q-14 -59 -97 -59q-20 0 -47 7t-47 14.5t-59.5 23.5t-59.5 24q-121 -75 -198 -75q-42 0 -73.5 24.5t-31.5 50.5zM51 553 q0 -10 2.5 -12t12.5 -2q72 0 161 61q-47 12 -75 12q-46 0 -73.5 -20t-27.5 -39z" />
<glyph unicode="&#xb3;" horiz-adv-x="665" d="M35 612q0 11 10 11q7 0 14 -13q11 -15 43 -30t68 -15q66 0 134.5 36.5t118 89.5t81 113.5t31.5 108.5q0 24 -12.5 43t-35.5 19q-61 0 -123.5 -23t-101 -46t-41.5 -23q-16 0 -27.5 14t-11.5 27q0 6 11 14.5t21 13.5l11 6q14 18 38.5 48.5t96 108.5t138.5 136 q-22 0 -111.5 -40t-140.5 -40q-41 0 -70 42t-29 83q0 6 5.5 11.5t13.5 5.5q1 0 9 -10.5t30.5 -21.5t58.5 -11q83 0 218 36.5t163 36.5q11 0 18 -31.5t7 -62.5q0 -5 -58 -37q-109 -55 -295 -229q128 55 166 55q40 0 91 -73t51 -142q0 -47 -37.5 -108t-93.5 -114t-127.5 -89.5 t-133.5 -36.5q-48 0 -88.5 17t-63 41t-34.5 45t-12 34z" />
<glyph unicode="&#xb4;" horiz-adv-x="462" d="M86 678q0 6 14.5 13.5t59.5 44t102 102.5q15 18 28.5 37.5t19.5 29.5t14 16.5t18 6.5q22 0 68.5 -43.5t46.5 -63.5q0 -8 -17 -21.5t-34 -23.5q-197 -119 -302 -119q-18 0 -18 21z" />
<glyph unicode="&#xb5;" horiz-adv-x="753" d="M-324 -582q0 92 65 268t143 337t143 305.5t65 179.5q0 16 23 16q25 0 54.5 -41.5t29.5 -68.5q0 -17 -21 -59.5t-57.5 -114.5t-61.5 -134q-8 -20 -8 -53q0 -18 11.5 -30.5t25.5 -12.5q28 0 99 59.5t106 112.5q55 80 111 173.5t77 144.5q5 11 11 15.5t22 4.5q36 0 65 -33.5 t29 -64.5q0 -12 -58 -89t-116.5 -163.5t-58.5 -122.5q0 -29 24 -29q52 0 139.5 55t149.5 110l62 55q12 12 18 12q4 0 8 -4t4 -8q0 -3 -26 -29q-10 -10 -27.5 -26t-68 -57.5t-96 -73t-100 -57.5t-91.5 -26q-30 0 -66.5 34t-36.5 71q-127 -123 -159 -123q-25 0 -56 16.5 t-47 44.5q-115 -225 -181.5 -389.5t-66.5 -275.5q0 -21 -16 -21q-18 0 -42 32.5t-24 59.5z" />
<glyph unicode="&#xb6;" horiz-adv-x="1271" d="M45 713q0 104 77.5 189t211.5 133t295 48h360q57 0 101 7.5t63 16t34 16t23 7.5q22 0 46 -45.5t24 -70.5q0 -20 -77 -42t-173 -26q-90 -206 -158 -371q13 -3 25.5 -8.5t18.5 -10.5t6 -7q0 -7 -8.5 -16t-18.5 -9q-15 0 -43 -4q-65 -163 -97.5 -247t-66 -189.5 t-33.5 -149.5q0 -38 -20 -38q-21 0 -21 57q0 173 115 543q-85 -23 -113 -31q-229 -547 -229 -629q0 -39 -20 -39q-21 0 -21 60q0 166 133 563q-110 -29 -151 -29q-60 0 -127.5 51.5t-111.5 127.5t-44 143zM162 623q0 -50 35.5 -86.5t99.5 -36.5q107 0 209 18 q116 329 158 438q-115 0 -189 -20q-85 -23 -148.5 -59.5t-98 -79.5t-50.5 -86.5t-16 -87.5zM651 547q68 17 99 22q17 52 63 186.5t64 190.5l-50 4q-4 -9 -176 -403z" />
<glyph unicode="&#xb7;" horiz-adv-x="198" d="M16 618q0 27 15.5 54.5t15.5 56.5q0 13 4.5 19t18.5 6q30 0 70 -34t40 -61q0 -25 -27.5 -52t-39.5 -27q-9 0 -37.5 -3.5t-36.5 -3.5q-23 0 -23 45z" />
<glyph unicode="&#xb8;" horiz-adv-x="309" d="M8 -289q0 15 12 15q2 0 9 -5t19.5 -9.5t27.5 -4.5q59 0 105 51.5t46 94.5q0 16 -12 16q-31 0 -73.5 -33t-47.5 -33q-17 0 -31 25t-14 45q0 11 40 68t44 67q6 17 17 17q12 0 29.5 -21t17.5 -33q0 -13 -22.5 -46t-31.5 -42q60 15 74 15q25 0 56.5 -40.5t31.5 -82.5 q0 -49 -56 -94.5t-124 -45.5q-35 0 -64 16.5t-41 33.5t-12 26z" />
<glyph unicode="&#xb9;" horiz-adv-x="552" d="M20 1055q0 4 4 8t11 4q2 0 9.5 -4t16.5 -4q30 0 90.5 35.5t106.5 71.5l45 36q4 6 10.5 15t24 32.5t33 41.5t32.5 33t27 15q28 0 47 -32.5t19 -53.5q0 -6 -40 -50t-102.5 -129t-105.5 -177q-46 -98 -73 -188.5t-31.5 -126t-4.5 -56.5q0 -14 3 -27t3 -14q0 -6 -12 -6 q-22 0 -58 34t-36 56q0 50 53.5 184.5t107.5 243.5l54 109q-16 -18 -47 -51q-32 -39 -55 -55.5t-50 -16.5q-25 0 -53.5 28t-28.5 44z" />
<glyph unicode="&#xba;" d="M18 969q0 86 58 173t138.5 140t147.5 53q58 0 117.5 -53t59.5 -133q0 -57 -60.5 -144.5t-142.5 -154t-137 -66.5q-67 0 -124 57.5t-57 127.5zM133 887q0 -26 15 -42t38 -16q55 0 126 56t122 137t51 145q0 22 -13.5 34.5t-31.5 12.5q-70 0 -144 -61.5t-118.5 -138 t-44.5 -127.5z" />
<glyph unicode="&#xbb;" horiz-adv-x="786" d="M10 905q0 14 7 21.5t28 7.5q6 0 37.5 -12.5t80.5 -35.5t102.5 -61t100 -83t77 -108t30.5 -130q0 -61 -33 -134t-81 -134t-98 -113t-87 -81.5t-45 -29.5q-31 0 -73 58t-42 84q0 7 33 32.5t79.5 64t93 85.5t79.5 109t33 122q0 57 -24 107t-59.5 84t-77.5 62t-77.5 44 t-59.5 27t-24 14zM336 905q0 14 7 21.5t28 7.5q4 0 26.5 -10t57.5 -30.5t75 -48.5t80.5 -67t73.5 -83t53.5 -100t20.5 -114q0 -61 -29 -131.5t-70.5 -128t-85.5 -106t-77 -76t-41 -27.5q-28 0 -71.5 58.5t-43.5 83.5q0 7 28.5 30.5t69 58.5t81 79t69 103.5t28.5 119.5 q0 67 -29 127t-70 99.5t-82 68.5t-70 45.5t-29 19.5z" />
<glyph unicode="&#xbc;" horiz-adv-x="1140" d="M-96 -123q0 7 18 45l696 1292q2 3 13.5 24t17.5 33.5t12.5 30t6.5 27.5q0 31 30 31q20 0 60.5 -62.5t40.5 -89.5q0 -9 -2.5 -16.5t-5.5 -12.5l-10.5 -17.5t-14.5 -24.5q-14 -24 -402.5 -628t-390.5 -607q-26 -43 -51 -43q-8 0 -13 6t-5 12zM20 1055q0 4 4 8t11 4 q2 0 9.5 -4t16.5 -4q30 0 90.5 35.5t106.5 71.5l45 36q4 6 10.5 15t24 32.5t33 41.5t32.5 33t27 15q28 0 47 -32.5t19 -53.5q0 -6 -40 -50t-102.5 -129t-105.5 -177q-46 -98 -73 -188.5t-31.5 -126t-4.5 -56.5q0 -14 3 -27t3 -14q0 -6 -12 -6q-22 0 -58 34t-36 56 q0 50 53.5 184.5t107.5 243.5l54 109q-16 -18 -47 -51q-32 -39 -55 -55.5t-50 -16.5q-25 0 -53.5 28t-28.5 44zM360 414q0 23 19 36t39 13q11 0 35 -4.5t43 -9.5l18 -5q8 7 20.5 19t45 49.5t57 74.5t45 88.5t20.5 96.5q0 8 -2 19.5t-2 13.5q0 12 15 12q21 0 56.5 -40 t35.5 -93q0 -45 -56.5 -109.5t-106.5 -104t-64 -46.5q21 -2 92 -16.5t118 -18.5l35 64q43 90 102 188.5t101.5 157.5t50.5 59q23 0 53.5 -41.5t30.5 -56.5q0 -4 -13 -10.5t-38.5 -24.5t-48.5 -45q-113 -140 -166 -256l-16 -37q42 0 76 13.5t50.5 26.5t18.5 13q8 0 8 -10 q0 -7 -22 -39.5t-59.5 -65t-69.5 -32.5q-23 0 -33 2q-35 -93 -52.5 -175t-17.5 -120q0 -9 -6.5 -13.5t-11.5 -4.5q-23 0 -59.5 33.5t-36.5 52.5q0 39 96 251q-17 5 -69 24.5t-85.5 27.5t-66.5 8q-50 -21 -107 -21q-31 0 -51.5 16.5t-20.5 39.5z" />
<glyph unicode="&#xbd;" horiz-adv-x="1200" d="M-27 -123q0 5 19 45l696 1292q2 4 10 19t13.5 25.5t12 24.5t10 26t3.5 20q0 31 31 31q20 0 60 -62.5t40 -89.5q0 -9 -2 -16.5t-5 -12.5t-11 -18t-14 -24q-14 -24 -402.5 -628t-390.5 -607q-26 -43 -51 -43q-8 0 -13.5 6.5t-5.5 11.5zM20 1055q0 4 4 8t11 4q2 0 9.5 -4 t16.5 -4q30 0 90.5 35.5t106.5 71.5l45 36q4 6 10.5 15t24 32.5t33 41.5t32.5 33t27 15q28 0 47 -32.5t19 -53.5q0 -6 -40 -50t-102.5 -129t-105.5 -177q-46 -98 -73 -188.5t-31.5 -126t-4.5 -56.5q0 -14 3 -27t3 -14q0 -6 -12 -6q-22 0 -58 34t-36 56q0 50 53.5 184.5 t107.5 243.5l54 109q-16 -18 -47 -51q-32 -39 -55 -55.5t-50 -16.5q-25 0 -53.5 28t-28.5 44zM444 82q0 27 49 53.5t117 26.5q33 0 95 -15q141 108 253.5 280t112.5 300q0 23 -13.5 39t-33.5 16q-60 0 -145.5 -47t-149 -113t-63.5 -114q0 -17 4 -32l4 -15q0 -17 -21 -17 q-12 0 -41.5 39t-29.5 70q0 57 42 114t102.5 97t126 65t112.5 25q68 0 131 -79t63 -154q0 -111 -106 -253.5t-246 -246.5q51 -10 141 -10q41 0 85 17.5t72 35.5t32 18t8 -5t4 -9q0 -7 -55 -62q-5 -5 -14.5 -12t-15.5 -12.5t-7 -9.5q-14 -60 -96 -60q-20 0 -46.5 7t-47.5 15 t-59 24t-60 24q-123 -76 -199 -76q-42 0 -73.5 25t-31.5 51zM481 63q0 -10 2.5 -12t12.5 -2q70 0 161 62q-46 12 -75 12q-46 0 -73.5 -20.5t-27.5 -39.5z" />
<glyph unicode="&#xbe;" horiz-adv-x="1443" d="M35 612q0 11 10 11q7 0 14 -13q11 -15 43 -30t68 -15q66 0 134.5 36.5t118 89.5t81 113.5t31.5 108.5q0 24 -12.5 43t-35.5 19q-61 0 -123.5 -23t-101 -46t-41.5 -23q-16 0 -27.5 14t-11.5 27q0 6 11 14.5t21 13.5l11 6q14 18 38.5 48.5t96 108.5t138.5 136 q-22 0 -111.5 -40t-140.5 -40q-41 0 -70 42t-29 83q0 6 5.5 11.5t13.5 5.5q1 0 9 -10.5t30.5 -21.5t58.5 -11q83 0 218 36.5t163 36.5q11 0 18 -31.5t7 -62.5q0 -5 -58 -37q-109 -55 -295 -229q128 55 166 55q40 0 91 -73t51 -142q0 -47 -37.5 -108t-93.5 -114t-127.5 -89.5 t-133.5 -36.5q-48 0 -88.5 17t-63 41t-34.5 45t-12 34zM215 -123q0 7 18 45l697 1292q22 43 49 115q11 31 31 31t60 -62.5t40 -89.5q0 -9 -2.5 -16.5t-5.5 -12.5l-10.5 -17.5t-14.5 -24.5q-14 -24 -402 -628t-390 -607q-26 -43 -52 -43q-8 0 -13 6t-5 12zM666 422 q0 23 18 35t39 12q11 0 35 -4t42 -8l19 -4q8 7 20.5 19t45 48.5t57.5 73.5t45.5 88t20.5 96q0 8 -2 19.5t-2 13.5q0 12 14 12q21 0 56.5 -40t35.5 -93q0 -45 -56.5 -109t-106.5 -103t-64 -46q21 -2 92.5 -16.5t118.5 -18.5l34 64q43 89 102 187t101.5 157t50.5 59 q23 0 53.5 -41.5t30.5 -56.5q0 -4 -13 -10.5t-38.5 -24.5t-48.5 -45q-112 -139 -166 -254l-16 -37q42 0 76.5 13.5t51.5 27.5l17 13q10 0 10 -11q0 -7 -22.5 -40t-60.5 -66t-70 -33q-23 0 -33 2q-35 -93 -52.5 -175t-17.5 -120q0 -9 -6.5 -13.5t-11.5 -4.5q-23 0 -59.5 33.5 t-36.5 52.5q0 40 96 252q-20 6 -56 19t-57.5 20.5t-51.5 13.5t-56 6q-50 -20 -107 -20q-30 0 -50.5 16.5t-20.5 40.5z" />
<glyph unicode="&#xbf;" horiz-adv-x="913" d="M10 -201q0 48 33.5 106t86.5 114.5t117.5 115.5t129 116t117.5 108.5t86.5 100.5t33.5 85q0 23 -2 37l-2 14q0 12 19 12q13 0 54.5 -37t41.5 -69q0 -58 -66 -138t-159.5 -160.5t-187.5 -161.5t-160 -162.5t-66 -141.5q0 -119 152 -119q81 0 177.5 33.5t181.5 88.5 t141.5 136.5t56.5 167.5q0 20 -3.5 36t-7.5 24.5t-4 9.5q0 18 21 18q24 0 70.5 -44.5t46.5 -90.5q0 -92 -73 -178t-177.5 -142.5t-213.5 -90t-188 -33.5q-104 0 -180 76t-76 169zM676 698q0 9 8.5 22.5t23.5 32.5t21 27q21 31 31 31q11 0 37 -21t26 -45q0 -17 -23.5 -60 t-23.5 -54q0 -19 -18 -19q-23 0 -52.5 30.5t-29.5 55.5z" />
<glyph unicode="&#xc0;" horiz-adv-x="2117" d="M-14 23q0 129 59.5 264.5t155.5 250.5t219.5 218t250.5 175t248.5 114t213.5 42q80 0 125 -41t45 -100q0 -56 -24.5 -117.5t-56.5 -105.5t-61 -73t-41 -29q-19 0 -45 8t-26 16q0 11 12 14q51 11 120.5 110.5t69.5 201.5q0 37 -24.5 62.5t-81.5 25.5q-82 0 -190.5 -45.5 t-220.5 -122.5t-221.5 -184.5t-194 -225t-137 -252.5t-52.5 -258q0 -132 61.5 -202t180.5 -70q35 0 76.5 14.5t82 36t92.5 61.5t94 75.5t102.5 95t103 103t109.5 116t107.5 117.5t111.5 124.5t108 120.5q-188 -47 -364 -152.5t-287 -246.5q-2 -2 -5 -6.5t-4.5 -6t-4 -3 t-5.5 -1.5q-16 0 -48 29t-32 49q0 30 78 97q235 197 719 292l8 9q112 122 213 219.5t219 191.5t227.5 157t230 101.5t234.5 38.5q23 0 36.5 -15.5t13.5 -29.5q0 -10 -4 -10q-1 0 -21 2t-29 2q-373 0 -909 -639q150 10 236 10q7 0 73 -4q98 169 221.5 325.5t237.5 262.5 q23 20 35 20q7 0 10.5 -5t3.5 -9q0 -11 -20 -31q-97 -95 -201 -251.5t-180 -321.5q123 -15 123 -47q0 -12 -13 -12q-2 0 -14.5 4.5t-42 11.5t-68.5 12q-122 -274 -122 -555q0 -123 57 -123q16 -4 16 -14t-22 -10q-24 0 -59.5 11.5t-74.5 34t-66.5 65t-27.5 94.5 q0 174 187 505q-25 2 -84 2q-88 0 -238 -16q-101 -122 -182 -215.5t-176 -194.5t-175 -174.5t-170 -142t-171.5 -111t-168 -67.5t-169.5 -25q-104 0 -191.5 38t-144.5 120t-57 195zM2279 1587q0 22 48 61.5t71 39.5q16 0 23 -27q11 -45 45 -88t67.5 -68t60.5 -45.5t27 -27.5 q0 -19 -22 -19q-21 0 -47.5 4t-95.5 32.5t-138 80.5q-39 29 -39 57z" />
<glyph unicode="&#xc1;" horiz-adv-x="2117" d="M-14 23q0 129 59.5 264.5t155.5 250.5t219.5 218t250.5 175t248.5 114t213.5 42q80 0 125 -41t45 -100q0 -56 -24.5 -117.5t-56.5 -105.5t-61 -73t-41 -29q-19 0 -45 8t-26 16q0 11 12 14q51 11 120.5 110.5t69.5 201.5q0 37 -24.5 62.5t-81.5 25.5q-82 0 -190.5 -45.5 t-220.5 -122.5t-221.5 -184.5t-194 -225t-137 -252.5t-52.5 -258q0 -132 61.5 -202t180.5 -70q35 0 76.5 14.5t82 36t92.5 61.5t94 75.5t102.5 95t103 103t109.5 116t107.5 117.5t111.5 124.5t108 120.5q-188 -47 -364 -152.5t-287 -246.5q-2 -2 -5 -6.5t-4.5 -6t-4 -3 t-5.5 -1.5q-16 0 -48 29t-32 49q0 30 78 97q235 197 719 292l8 9q112 122 213 219.5t219 191.5t227.5 157t230 101.5t234.5 38.5q23 0 36.5 -15.5t13.5 -29.5q0 -10 -4 -10q-1 0 -21 2t-29 2q-373 0 -909 -639q150 10 236 10q7 0 73 -4q98 169 221.5 325.5t237.5 262.5 q23 20 35 20q7 0 10.5 -5t3.5 -9q0 -11 -20 -31q-97 -95 -201 -251.5t-180 -321.5q123 -15 123 -47q0 -12 -13 -12q-2 0 -14.5 4.5t-42 11.5t-68.5 12q-122 -274 -122 -555q0 -123 57 -123q16 -4 16 -14t-22 -10q-24 0 -59.5 11.5t-74.5 34t-66.5 65t-27.5 94.5 q0 174 187 505q-25 2 -84 2q-88 0 -238 -16q-101 -122 -182 -215.5t-176 -194.5t-175 -174.5t-170 -142t-171.5 -111t-168 -67.5t-169.5 -25q-104 0 -191.5 38t-144.5 120t-57 195zM2290 1425q0 6 14.5 13.5t59.5 44t102 102.5q15 18 28.5 37.5t19.5 29.5t14 16.5t18 6.5 q22 0 68 -43t46 -63q0 -8 -17 -21.5t-34 -23.5q-197 -119 -301 -119q-18 0 -18 20z" />
<glyph unicode="&#xc2;" horiz-adv-x="2117" d="M-14 23q0 129 59.5 264.5t155.5 250.5t219.5 218t250.5 175t248.5 114t213.5 42q80 0 125 -41t45 -100q0 -56 -24.5 -117.5t-56.5 -105.5t-61 -73t-41 -29q-19 0 -45 8t-26 16q0 11 12 14q51 11 120.5 110.5t69.5 201.5q0 37 -24.5 62.5t-81.5 25.5q-82 0 -190.5 -45.5 t-220.5 -122.5t-221.5 -184.5t-194 -225t-137 -252.5t-52.5 -258q0 -132 61.5 -202t180.5 -70q35 0 76.5 14.5t82 36t92.5 61.5t94 75.5t102.5 95t103 103t109.5 116t107.5 117.5t111.5 124.5t108 120.5q-188 -47 -364 -152.5t-287 -246.5q-2 -2 -5 -6.5t-4.5 -6t-4 -3 t-5.5 -1.5q-16 0 -48 29t-32 49q0 30 78 97q235 197 719 292l8 9q112 122 213 219.5t219 191.5t227.5 157t230 101.5t234.5 38.5q23 0 36.5 -15.5t13.5 -29.5q0 -10 -4 -10q-1 0 -21 2t-29 2q-373 0 -909 -639q150 10 236 10q7 0 73 -4q98 169 221.5 325.5t237.5 262.5 q23 20 35 20q7 0 10.5 -5t3.5 -9q0 -11 -20 -31q-97 -95 -201 -251.5t-180 -321.5q123 -15 123 -47q0 -12 -13 -12q-2 0 -14.5 4.5t-42 11.5t-68.5 12q-122 -274 -122 -555q0 -123 57 -123q16 -4 16 -14t-22 -10q-24 0 -59.5 11.5t-74.5 34t-66.5 65t-27.5 94.5 q0 174 187 505q-25 2 -84 2q-88 0 -238 -16q-101 -122 -182 -215.5t-176 -194.5t-175 -174.5t-170 -142t-171.5 -111t-168 -67.5t-169.5 -25q-104 0 -191.5 38t-144.5 120t-57 195zM2234 1499q0 12 11 12q1 0 13 -2t21 -2q53 0 139.5 31.5t151.5 63.5t68 32q16 0 44 -29.5 t28 -39.5q0 -4 -24 -22t-47.5 -49t-23.5 -67q0 -14 -12 -14q-3 0 -13.5 8.5t-21 23.5t-10.5 28q0 9 4.5 24t9.5 28t10 25t5 13q-64 -56 -138.5 -104t-121.5 -48q-21 0 -57 33t-36 55z" />
<glyph unicode="&#xc3;" horiz-adv-x="2117" d="M-14 23q0 129 59.5 264.5t155.5 250.5t219.5 218t250.5 175t248.5 114t213.5 42q80 0 125 -41t45 -100q0 -56 -24.5 -117.5t-56.5 -105.5t-61 -73t-41 -29q-19 0 -45 8t-26 16q0 11 12 14q51 11 120.5 110.5t69.5 201.5q0 37 -24.5 62.5t-81.5 25.5q-82 0 -190.5 -45.5 t-220.5 -122.5t-221.5 -184.5t-194 -225t-137 -252.5t-52.5 -258q0 -132 61.5 -202t180.5 -70q35 0 76.5 14.5t82 36t92.5 61.5t94 75.5t102.5 95t103 103t109.5 116t107.5 117.5t111.5 124.5t108 120.5q-188 -47 -364 -152.5t-287 -246.5q-2 -2 -5 -6.5t-4.5 -6t-4 -3 t-5.5 -1.5q-16 0 -48 29t-32 49q0 30 78 97q235 197 719 292l8 9q112 122 213 219.5t219 191.5t227.5 157t230 101.5t234.5 38.5q23 0 36.5 -15.5t13.5 -29.5q0 -10 -4 -10q-1 0 -21 2t-29 2q-373 0 -909 -639q150 10 236 10q7 0 73 -4q98 169 221.5 325.5t237.5 262.5 q23 20 35 20q7 0 10.5 -5t3.5 -9q0 -11 -20 -31q-97 -95 -201 -251.5t-180 -321.5q123 -15 123 -47q0 -12 -13 -12q-2 0 -14.5 4.5t-42 11.5t-68.5 12q-122 -274 -122 -555q0 -123 57 -123q16 -4 16 -14t-22 -10q-24 0 -59.5 11.5t-74.5 34t-66.5 65t-27.5 94.5 q0 174 187 505q-25 2 -84 2q-88 0 -238 -16q-101 -122 -182 -215.5t-176 -194.5t-175 -174.5t-170 -142t-171.5 -111t-168 -67.5t-169.5 -25q-104 0 -191.5 38t-144.5 120t-57 195zM2261 1460q0 9 24 29t69 38.5t91 18.5q33 0 93 -5t75 -5q38 0 70.5 12t50.5 24.5t21 12.5 q8 0 13 -5.5t5 -12.5q0 -8 -23 -40t-63 -64.5t-74 -32.5q-37 0 -118 27.5t-117 27.5q-29 0 -63 -23l-34 -22q-9 0 -14.5 6t-5.5 14z" />
<glyph unicode="&#xc4;" horiz-adv-x="2117" d="M-14 23q0 129 59.5 264.5t155.5 250.5t219.5 218t250.5 175t248.5 114t213.5 42q80 0 125 -41t45 -100q0 -56 -24.5 -117.5t-56.5 -105.5t-61 -73t-41 -29q-19 0 -45 8t-26 16q0 11 12 14q51 11 120.5 110.5t69.5 201.5q0 37 -24.5 62.5t-81.5 25.5q-82 0 -190.5 -45.5 t-220.5 -122.5t-221.5 -184.5t-194 -225t-137 -252.5t-52.5 -258q0 -132 61.5 -202t180.5 -70q35 0 76.5 14.5t82 36t92.5 61.5t94 75.5t102.5 95t103 103t109.5 116t107.5 117.5t111.5 124.5t108 120.5q-188 -47 -364 -152.5t-287 -246.5q-2 -2 -5 -6.5t-4.5 -6t-4 -3 t-5.5 -1.5q-16 0 -48 29t-32 49q0 30 78 97q235 197 719 292l8 9q112 122 213 219.5t219 191.5t227.5 157t230 101.5t234.5 38.5q23 0 36.5 -15.5t13.5 -29.5q0 -10 -4 -10q-1 0 -21 2t-29 2q-373 0 -909 -639q150 10 236 10q7 0 73 -4q98 169 221.5 325.5t237.5 262.5 q23 20 35 20q7 0 10.5 -5t3.5 -9q0 -11 -20 -31q-97 -95 -201 -251.5t-180 -321.5q123 -15 123 -47q0 -12 -13 -12q-2 0 -14.5 4.5t-42 11.5t-68.5 12q-122 -274 -122 -555q0 -123 57 -123q16 -4 16 -14t-22 -10q-24 0 -59.5 11.5t-74.5 34t-66.5 65t-27.5 94.5 q0 174 187 505q-25 2 -84 2q-88 0 -238 -16q-101 -122 -182 -215.5t-176 -194.5t-175 -174.5t-170 -142t-171.5 -111t-168 -67.5t-169.5 -25q-104 0 -191.5 38t-144.5 120t-57 195zM2279 1470q0 5 26 67t26 81q0 37 24 37q22 0 71.5 -50.5t49.5 -76.5q0 -30 -69 -57t-99 -27 q-29 0 -29 26zM2494 1466q0 4 9.5 22.5t23 47.5t21.5 53q1 4 5.5 18.5t7.5 21.5t7.5 17t9.5 14.5t11 4.5q26 0 70 -40.5t44 -80.5q0 -36 -70.5 -69t-111.5 -33q-27 0 -27 24z" />
<glyph unicode="&#xc5;" horiz-adv-x="2117" d="M-14 23q0 129 59.5 264.5t155.5 250.5t219.5 218t250.5 175t248.5 114t213.5 42q80 0 125 -41t45 -100q0 -56 -24.5 -117.5t-56.5 -105.5t-61 -73t-41 -29q-19 0 -45 8t-26 16q0 11 12 14q51 11 120.5 110.5t69.5 201.5q0 37 -24.5 62.5t-81.5 25.5q-82 0 -190.5 -45.5 t-220.5 -122.5t-221.5 -184.5t-194 -225t-137 -252.5t-52.5 -258q0 -132 61.5 -202t180.5 -70q35 0 76.5 14.5t82 36t92.5 61.5t94 75.5t102.5 95t103 103t109.5 116t107.5 117.5t111.5 124.5t108 120.5q-188 -47 -364 -152.5t-287 -246.5q-2 -2 -5 -6.5t-4.5 -6t-4 -3 t-5.5 -1.5q-16 0 -48 29t-32 49q0 30 78 97q235 197 719 292l8 9q112 122 213 219.5t219 191.5t227.5 157t230 101.5t234.5 38.5q23 0 36.5 -15.5t13.5 -29.5q0 -10 -4 -10q-1 0 -21 2t-29 2q-373 0 -909 -639q150 10 236 10q7 0 73 -4q98 169 221.5 325.5t237.5 262.5 q23 20 35 20q7 0 10.5 -5t3.5 -9q0 -11 -20 -31q-97 -95 -201 -251.5t-180 -321.5q123 -15 123 -47q0 -12 -13 -12q-2 0 -14.5 4.5t-42 11.5t-68.5 12q-122 -274 -122 -555q0 -123 57 -123q16 -4 16 -14t-22 -10q-24 0 -59.5 11.5t-74.5 34t-66.5 65t-27.5 94.5 q0 174 187 505q-25 2 -84 2q-88 0 -238 -16q-101 -122 -182 -215.5t-176 -194.5t-175 -174.5t-170 -142t-171.5 -111t-168 -67.5t-169.5 -25q-104 0 -191.5 38t-144.5 120t-57 195zM2345 1538q0 77 69.5 142t141.5 65q41 0 77 -39.5t36 -87.5q0 -64 -62.5 -134.5 t-132.5 -70.5q-41 0 -85 43t-44 82zM2427 1493q0 -14 10.5 -24.5t20.5 -10.5q60 0 109.5 55.5t49.5 94.5q0 8 -8.5 17t-19.5 9q-48 0 -105 -55.5t-57 -85.5z" />
<glyph unicode="&#xc6;" horiz-adv-x="2543" d="M4 156q0 12 14 12q8 0 15 -10q71 -117 317 -117q82 0 168 36t158 90t153.5 138.5t141.5 158.5t133 173q-13 0 -36.5 1t-31.5 1q-159 0 -303 -63.5t-207 -155.5q-1 -2 -4.5 -6.5t-6 -7.5t-6 -6.5t-7 -5t-6.5 -1.5q-5 0 -10 4.5t-5 8.5q0 6 13 26q65 107 248 205t368 98 q14 0 34 -1t34 -1q120 160 147 191q158 181 304.5 272.5t328.5 97.5q32 42 78 88q42 45 69 45q17 0 17 -14q0 -7 -21 -33q-55 -74 -63 -86q75 -3 213.5 -26t236.5 -23q114 0 211 60q9 6 15 6q8 0 8 -11q0 -5 -15 -24q-104 -131 -253 -131q-82 0 -220 49.5t-223 56.5 q-105 -172 -221 -549l-12 -40q17 -3 75.5 -12t84 -12t72 -7t89.5 -4q156 0 256 78q13 10 21 10q14 0 14 -15q0 -8 -18 -26q-17 -17 -41 -33.5t-66.5 -36.5t-107 -32.5t-140.5 -12.5q-112 0 -266 21q-40 -125 -59.5 -185t-54.5 -146.5t-70 -146.5q33 -7 137.5 -29.5 t154.5 -31.5t135 -19t160 -10q136 0 205 43q12 8 17 8q12 0 12 -12q0 -6 -8 -14q-2 -2 -17.5 -18.5t-27.5 -28t-33.5 -30t-43 -31.5t-48.5 -26t-58.5 -19.5t-64.5 -6.5q-74 0 -166.5 29t-207.5 75.5t-177 65.5q-113 -176 -285 -176q-56 0 -93.5 29.5t-37.5 68.5 q0 44 42.5 79.5t100.5 53t115 17.5h8q120 194 228 479q-178 28 -348 35q-450 -742 -879 -742q-62 0 -120.5 21t-99.5 50t-76.5 66t-54 63t-28.5 46q-4 8 -4 19zM1161 -27q0 -28 41 -28q36 0 77.5 32.5t80.5 98.5q-82 0 -140.5 -31.5t-58.5 -71.5zM1319 725q152 -14 323 -43 q2 6 23 59q107 290 266 514q-158 -9 -287 -106t-245 -287q-14 -21 -40 -67.5t-40 -69.5z" />
<glyph unicode="&#xc7;" horiz-adv-x="1228" d="M-14 156q0 96 37 201.5t101 204.5t151.5 197t187.5 182t210.5 156.5t217.5 124t211.5 80.5t191.5 29q69 0 120 -37t73 -84t22 -92q0 -55 -48 -129t-110 -133.5t-120 -102t-80 -42.5q-33 0 -75 23t-42 34q0 15 17 18q53 9 124.5 45t136.5 86t110.5 113.5t45.5 118.5 q0 68 -116 68q-97 0 -228 -50t-265.5 -134t-266 -199.5t-233.5 -238.5t-165 -260t-63 -257q0 -122 71 -178t208 -56q417 0 819 398q8 8 12 8q12 0 12 -10q0 -2 -6 -8.5t-12 -12.5l-6 -6q-59 -62 -145 -130t-193 -136t-230 -113.5t-229 -48.5q12 -15 12 -27q0 -13 -22 -46 t-31 -42q60 15 74 15q25 0 56.5 -40.5t31.5 -82.5q0 -49 -56 -94.5t-124 -45.5q-35 0 -64 16.5t-41 33.5t-12 26q0 15 12 15q2 0 9 -4.5t19.5 -9.5t27.5 -5q59 0 105 51.5t46 94.5q0 16 -12 16q-31 0 -73.5 -33t-47.5 -33q-17 0 -31 25t-14 45q0 8 15 31.5t35.5 52.5 t27.5 41q-150 16 -269.5 124.5t-119.5 246.5z" />
<glyph unicode="&#xc8;" horiz-adv-x="1187" d="M-12 -92q0 54 31 112.5t77.5 109t120 107t139.5 99t156.5 92.5t150.5 80.5t140 69.5l-2 6q-14 -4 -25 -9q-369 -133 -489 -133q-77 0 -141 47.5t-64 122.5q0 70 56.5 152.5t151 161.5t223 153t267 129.5t288.5 89t282 33.5q85 0 133.5 -46.5t48.5 -102.5 q0 -53 -66 -131.5t-153 -145t-160 -100.5q-47 -21 -63 -21t-39 18.5t-23 33.5q0 14 12 16q88 22 196 84.5t184.5 136t76.5 121.5q0 53 -84 53q-127 0 -270.5 -35t-271.5 -92.5t-247.5 -131t-205.5 -149.5t-137.5 -150.5t-51.5 -131.5q0 -34 22 -54t66 -20q74 0 201.5 41 t229 82t110.5 41q25 0 52.5 -51.5t27.5 -83.5q0 -6 -7.5 -13.5t-26 -18t-30.5 -17.5t-41 -21.5t-38 -19.5q-273 -148 -397 -231q-292 -197 -292 -330q0 -46 27 -70t78 -24q124 0 250.5 32t228.5 80.5t200.5 115t167.5 125.5t130 122q8 8 12 8t8 -4.5t4 -7.5l-24 -29 q-62 -62 -137.5 -125.5t-177 -133t-202.5 -122t-216.5 -87t-218.5 -34.5q-82 0 -165 64.5t-83 136.5zM1116 1583q0 22 48 61t71 39q4 0 7 -1t5 -3l3.5 -3.5t2.5 -5t1.5 -5t1.5 -5.5l1 -3q11 -45 45 -88t68 -68.5t61 -46t27 -27.5q0 -18 -22 -18q-21 0 -47.5 4t-95.5 32.5 t-138 80.5q-39 29 -39 57z" />
<glyph unicode="&#xc9;" horiz-adv-x="1187" d="M-12 -92q0 54 31 112.5t77.5 109t120 107t139.5 99t156.5 92.5t150.5 80.5t140 69.5l-2 6q-14 -4 -25 -9q-369 -133 -489 -133q-77 0 -141 47.5t-64 122.5q0 70 56.5 152.5t151 161.5t223 153t267 129.5t288.5 89t282 33.5q85 0 133.5 -46.5t48.5 -102.5 q0 -53 -66 -131.5t-153 -145t-160 -100.5q-47 -21 -63 -21t-39 18.5t-23 33.5q0 14 12 16q88 22 196 84.5t184.5 136t76.5 121.5q0 53 -84 53q-127 0 -270.5 -35t-271.5 -92.5t-247.5 -131t-205.5 -149.5t-137.5 -150.5t-51.5 -131.5q0 -34 22 -54t66 -20q74 0 201.5 41 t229 82t110.5 41q25 0 52.5 -51.5t27.5 -83.5q0 -6 -7.5 -13.5t-26 -18t-30.5 -17.5t-41 -21.5t-38 -19.5q-273 -148 -397 -231q-292 -197 -292 -330q0 -46 27 -70t78 -24q124 0 250.5 32t228.5 80.5t200.5 115t167.5 125.5t130 122q8 8 12 8t8 -4.5t4 -7.5l-24 -29 q-62 -62 -137.5 -125.5t-177 -133t-202.5 -122t-216.5 -87t-218.5 -34.5q-82 0 -165 64.5t-83 136.5zM1231 1434q0 6 14.5 13t59.5 43.5t102 102.5q15 18 28.5 37.5t19.5 29.5t14 16.5t18 6.5q22 0 68.5 -43t46.5 -63q0 -16 -52 -45q-197 -119 -301 -119q-18 0 -18 21z" />
<glyph unicode="&#xca;" horiz-adv-x="1187" d="M-12 -92q0 54 31 112.5t77.5 109t120 107t139.5 99t156.5 92.5t150.5 80.5t140 69.5l-2 6q-14 -4 -25 -9q-369 -133 -489 -133q-77 0 -141 47.5t-64 122.5q0 70 56.5 152.5t151 161.5t223 153t267 129.5t288.5 89t282 33.5q85 0 133.5 -46.5t48.5 -102.5 q0 -53 -66 -131.5t-153 -145t-160 -100.5q-47 -21 -63 -21t-39 18.5t-23 33.5q0 14 12 16q88 22 196 84.5t184.5 136t76.5 121.5q0 53 -84 53q-127 0 -270.5 -35t-271.5 -92.5t-247.5 -131t-205.5 -149.5t-137.5 -150.5t-51.5 -131.5q0 -34 22 -54t66 -20q74 0 201.5 41 t229 82t110.5 41q25 0 52.5 -51.5t27.5 -83.5q0 -6 -7.5 -13.5t-26 -18t-30.5 -17.5t-41 -21.5t-38 -19.5q-273 -148 -397 -231q-292 -197 -292 -330q0 -46 27 -70t78 -24q124 0 250.5 32t228.5 80.5t200.5 115t167.5 125.5t130 122q8 8 12 8t8 -4.5t4 -7.5l-24 -29 q-62 -62 -137.5 -125.5t-177 -133t-202.5 -122t-216.5 -87t-218.5 -34.5q-82 0 -165 64.5t-83 136.5zM1118 1491q0 12 10 12l13 -2q13 -2 22 -2q53 0 139.5 31.5t151.5 63.5t68 32q16 0 43.5 -29.5t27.5 -40.5q0 -4 -23.5 -21.5t-47 -48.5t-23.5 -67q0 -14 -12 -14 q-3 0 -13.5 8.5t-21 23t-10.5 27.5q0 9 4 24t9 28t10 25t5 13q-63 -55 -137.5 -103t-122.5 -48q-21 0 -56.5 33t-35.5 55z" />
<glyph unicode="&#xcb;" horiz-adv-x="1187" d="M-12 -92q0 54 31 112.5t77.5 109t120 107t139.5 99t156.5 92.5t150.5 80.5t140 69.5l-2 6q-14 -4 -25 -9q-369 -133 -489 -133q-77 0 -141 47.5t-64 122.5q0 70 56.5 152.5t151 161.5t223 153t267 129.5t288.5 89t282 33.5q85 0 133.5 -46.5t48.5 -102.5 q0 -53 -66 -131.5t-153 -145t-160 -100.5q-47 -21 -63 -21t-39 18.5t-23 33.5q0 14 12 16q88 22 196 84.5t184.5 136t76.5 121.5q0 53 -84 53q-127 0 -270.5 -35t-271.5 -92.5t-247.5 -131t-205.5 -149.5t-137.5 -150.5t-51.5 -131.5q0 -34 22 -54t66 -20q74 0 201.5 41 t229 82t110.5 41q25 0 52.5 -51.5t27.5 -83.5q0 -6 -7.5 -13.5t-26 -18t-30.5 -17.5t-41 -21.5t-38 -19.5q-273 -148 -397 -231q-292 -197 -292 -330q0 -46 27 -70t78 -24q124 0 250.5 32t228.5 80.5t200.5 115t167.5 125.5t130 122q8 8 12 8t8 -4.5t4 -7.5l-24 -29 q-62 -62 -137.5 -125.5t-177 -133t-202.5 -122t-216.5 -87t-218.5 -34.5q-82 0 -165 64.5t-83 136.5zM1130 1454q0 5 26 67t26 81q0 36 24 36q22 0 71.5 -50.5t49.5 -76.5q0 -30 -69 -57t-99 -27q-29 0 -29 27zM1346 1450q0 4 9 22.5t22.5 48t21.5 52.5q1 4 5.5 18.5 t7.5 21.5t7.5 17t9.5 14.5t11 4.5q26 0 70 -40.5t44 -80.5q0 -36 -70.5 -69.5t-111.5 -33.5q-26 0 -26 25z" />
<glyph unicode="&#xcc;" horiz-adv-x="1331" d="M-4 -317q0 5 4 9.5t10 4.5q1 0 14 -4.5t36.5 -10.5t54 -12.5t74.5 -11t90 -4.5q153 0 272.5 68.5t234.5 201.5q-65 30 -118.5 66t-99.5 84t-71.5 109.5t-25.5 131.5q0 85 36.5 167t95 148.5t141.5 131t167.5 113.5t181.5 98t174 82.5t155 69t116 55.5q15 17 39 42t73 67 t70 42q6 0 16.5 -15.5t10.5 -21.5q0 -10 -21 -20q-72 -41 -145 -117q-65 -70 -121 -192.5t-101 -260.5t-94.5 -281t-123 -288.5t-162.5 -247.5q27 -4 59 -4h45q13 0 24 -11.5t11 -16.5q0 -4 -6.5 -8.5t-17.5 -4.5q-50 0 -136 21q-232 -256 -632 -256q-100 0 -185.5 21.5 t-126.5 41.5q-18 9 -18 13zM616 303q0 -117 52 -198t147 -146q81 99 161 233.5t143 263.5t122.5 252.5t122 233t119.5 174.5q-22 -11 -94.5 -44t-128 -59.5t-140 -73.5t-148 -91t-134.5 -107.5t-116.5 -127t-75.5 -144.5t-30 -166zM1536 1567q0 22 48 61t71 39q4 0 7 -1 t5 -3t3.5 -4t2.5 -5t1.5 -5t1.5 -5t1 -4q11 -45 45 -88t68 -68t61 -45.5t27 -27.5q0 -18 -23 -18q-125 0 -280 116q-39 29 -39 58z" />
<glyph unicode="&#xcd;" horiz-adv-x="1331" d="M-4 -317q0 5 4 9.5t10 4.5q1 0 14 -4.5t36.5 -10.5t54 -12.5t74.5 -11t90 -4.5q153 0 272.5 68.5t234.5 201.5q-65 30 -118.5 66t-99.5 84t-71.5 109.5t-25.5 131.5q0 85 36.5 167t95 148.5t141.5 131t167.5 113.5t181.5 98t174 82.5t155 69t116 55.5q15 17 39 42t73 67 t70 42q6 0 16.5 -15.5t10.5 -21.5q0 -10 -21 -20q-72 -41 -145 -117q-65 -70 -121 -192.5t-101 -260.5t-94.5 -281t-123 -288.5t-162.5 -247.5q27 -4 59 -4h45q13 0 24 -11.5t11 -16.5q0 -4 -6.5 -8.5t-17.5 -4.5q-50 0 -136 21q-232 -256 -632 -256q-100 0 -185.5 21.5 t-126.5 41.5q-18 9 -18 13zM616 303q0 -117 52 -198t147 -146q81 99 161 233.5t143 263.5t122.5 252.5t122 233t119.5 174.5q-22 -11 -94.5 -44t-128 -59.5t-140 -73.5t-148 -91t-134.5 -107.5t-116.5 -127t-75.5 -144.5t-30 -166zM1450 1380q0 6 14.5 13.5t59.5 44 t102 102.5q15 18 28.5 37.5t19.5 29.5t14 16.5t18 6.5q22 0 68.5 -43t46.5 -63q0 -16 -52 -45q-197 -119 -301 -119q-18 0 -18 20z" />
<glyph unicode="&#xce;" horiz-adv-x="1331" d="M-4 -317q0 5 4 9.5t10 4.5q1 0 14 -4.5t36.5 -10.5t54 -12.5t74.5 -11t90 -4.5q153 0 272.5 68.5t234.5 201.5q-65 30 -118.5 66t-99.5 84t-71.5 109.5t-25.5 131.5q0 85 36.5 167t95 148.5t141.5 131t167.5 113.5t181.5 98t174 82.5t155 69t116 55.5q15 17 39 42t73 67 t70 42q6 0 16.5 -15.5t10.5 -21.5q0 -10 -21 -20q-72 -41 -145 -117q-65 -70 -121 -192.5t-101 -260.5t-94.5 -281t-123 -288.5t-162.5 -247.5q27 -4 59 -4h45q13 0 24 -11.5t11 -16.5q0 -4 -6.5 -8.5t-17.5 -4.5q-50 0 -136 21q-232 -256 -632 -256q-100 0 -185.5 21.5 t-126.5 41.5q-18 9 -18 13zM616 303q0 -117 52 -198t147 -146q81 99 161 233.5t143 263.5t122.5 252.5t122 233t119.5 174.5q-22 -11 -94.5 -44t-128 -59.5t-140 -73.5t-148 -91t-134.5 -107.5t-116.5 -127t-75.5 -144.5t-30 -166zM1479 1483q0 12 10 12q1 0 13 -2t22 -2 q53 0 139 31.5t151 63.5t68 32q16 0 44 -29.5t28 -40.5q0 -4 -23.5 -21.5t-47 -48.5t-23.5 -67q0 -14 -13 -14q-3 0 -13.5 8.5t-21 23t-10.5 27.5q0 9 4.5 24t9.5 28t10 25t5 13q-63 -55 -137.5 -103t-122.5 -48q-21 0 -56.5 33t-35.5 55z" />
<glyph unicode="&#xcf;" horiz-adv-x="1331" d="M-4 -317q0 5 4 9.5t10 4.5q1 0 14 -4.5t36.5 -10.5t54 -12.5t74.5 -11t90 -4.5q153 0 272.5 68.5t234.5 201.5q-65 30 -118.5 66t-99.5 84t-71.5 109.5t-25.5 131.5q0 85 36.5 167t95 148.5t141.5 131t167.5 113.5t181.5 98t174 82.5t155 69t116 55.5q15 17 39 42t73 67 t70 42q6 0 16.5 -15.5t10.5 -21.5q0 -10 -21 -20q-72 -41 -145 -117q-65 -70 -121 -192.5t-101 -260.5t-94.5 -281t-123 -288.5t-162.5 -247.5q27 -4 59 -4h45q13 0 24 -11.5t11 -16.5q0 -4 -6.5 -8.5t-17.5 -4.5q-50 0 -136 21q-232 -256 -632 -256q-100 0 -185.5 21.5 t-126.5 41.5q-18 9 -18 13zM616 303q0 -117 52 -198t147 -146q81 99 161 233.5t143 263.5t122.5 252.5t122 233t119.5 174.5q-22 -11 -94.5 -44t-128 -59.5t-140 -73.5t-148 -91t-134.5 -107.5t-116.5 -127t-75.5 -144.5t-30 -166zM1516 1434q0 5 25.5 66.5t25.5 80.5 q0 37 24 37q22 0 71.5 -50.5t49.5 -76.5q0 -30 -69 -57t-99 -27q-28 0 -28 27zM1731 1430q0 4 9 22.5t22.5 47.5t21.5 52q1 4 5.5 18.5t7.5 21.5t7.5 17t9.5 14.5t11 4.5q26 0 70 -40.5t44 -80.5q0 -36 -70.5 -69t-111.5 -33q-26 0 -26 25z" />
<glyph unicode="&#xd0;" horiz-adv-x="2103" d="M-16 471q0 98 67.5 203t180.5 198.5t267 178.5t321.5 146.5t348.5 97.5t344 36q185 0 329 -39.5t230 -106.5t129.5 -149.5t43.5 -175.5q0 -128 -67.5 -260.5t-180.5 -246t-263.5 -215t-313 -172.5t-333 -112.5t-319.5 -41.5q-140 0 -244 56t-104 142q0 125 131.5 241.5 t343.5 203.5q41 92 94 188q-77 -25 -110 -25q-30 0 -54 35q-136 -147 -299 -242.5t-290 -95.5q-92 0 -172 46t-80 110zM141 442q0 -84 60 -84q115 0 287 95.5t313 234.5q-21 47 -21 68q0 26 17 26q4 0 14 -10q14 -18 51 -20q81 94 121 176q9 18 16 18q6 0 10.5 -6t4.5 -12 q0 -7 -10 -27q-41 -78 -95 -149q89 0 150 6q124 197 250.5 340t181.5 143q18 0 47 -41.5t29 -71.5q0 -17 -27 -32q-67 -42 -157.5 -128.5t-176.5 -193.5q18 2 58 2t59.5 -27t19.5 -55q0 -16 -12 -16q-8 0 -12 8q-12 29 -59 29q-39 0 -113 -19q-77 -108 -125 -196 q272 90 512 90q95 0 159.5 -10.5t85.5 -21t21 -19.5q0 -13 -4 -13q-1 0 -10 3t-25.5 8t-39 9.5t-55.5 7.5t-69 3q-318 0 -612 -131q-90 -195 -90 -328q0 -30 -18 -30q-5 0 -19 7.5t-28.5 23.5t-14.5 34q0 89 47 232q-143 -81 -226 -182t-83 -208q0 -133 215 -133 q144 0 300 42.5t300.5 117t275.5 180.5t228 226.5t154 262.5t57 283q0 53 -9 94.5t-41.5 88.5t-87.5 77.5t-155 51t-236 20.5q-158 0 -329.5 -36t-325.5 -97.5t-294.5 -145.5t-242 -176t-161.5 -193.5t-60 -195.5z" />
<glyph unicode="&#xd1;" horiz-adv-x="2088" d="M-14 520q0 91 52.5 189.5t141 187t207 169t246 138.5t263.5 92.5t255 34.5q155 0 249.5 -76t94.5 -215q0 -108 -84 -311q34 28 102 83t99 80t87 68.5t86.5 63.5t75.5 48t75.5 40t65.5 21.5t66 9.5q51 0 114 -51t63 -99q0 -57 -49 -156t-119 -212t-140 -232.5t-119 -248 t-49 -228.5q0 -85 31.5 -124.5t83.5 -39.5q17 0 17 -12t-31 -12q-32 0 -72 14.5t-80.5 42t-68 76t-27.5 106.5q0 106 49.5 241.5t119.5 260t140.5 239t120 209t49.5 140.5q0 20 -12.5 31.5t-32.5 11.5q-29 0 -64.5 -11t-68.5 -26.5t-80 -47t-82 -56.5t-93 -72.5t-93.5 -77.5 t-104.5 -88.5t-106 -89.5q-32 -60 -92 -175q-61 -116 -91 -172t-79.5 -144t-80 -129.5t-70 -88.5t-74 -65.5t-68.5 -18.5q-46 0 -90.5 29t-44.5 70q0 66 139 236.5t348 373.5q185 389 185 563q0 96 -42.5 143t-156.5 47q-111 0 -233 -36t-234.5 -97.5t-215 -146t-178 -177 t-120.5 -196t-45 -198.5q0 -87 43 -133t119 -46q101 0 197.5 39.5t161.5 91.5t125 122.5t87 112.5t49 83q12 24 23 24q12 0 12 -16q0 -6 -6 -18q-15 -38 -47 -93.5t-87.5 -127.5t-118.5 -132t-148 -101.5t-169 -41.5q-93 0 -180.5 43.5t-141.5 115t-54 148.5zM717 -68 q0 -14 16 -14q15 0 69.5 63t132.5 178.5t144 237.5q-144 -145 -253 -283.5t-109 -181.5zM1835 1268q0 9 24 29t69 38.5t91 18.5q33 0 93 -5.5t75 -5.5q38 0 70.5 12.5t50.5 25t21 12.5q8 0 13 -6t5 -13q0 -8 -23 -40t-63 -64.5t-74 -32.5q-37 0 -118 27.5t-117 27.5 q-29 0 -63 -22l-34 -23q-9 0 -14.5 6.5t-5.5 14.5z" />
<glyph unicode="&#xd2;" horiz-adv-x="1449" d="M-10 397q0 121 54 242t145 222t211.5 189.5t250.5 149.5t265.5 96t254.5 35q177 0 290.5 -111.5t113.5 -283.5q0 -123 -49.5 -263.5t-131 -269.5t-191 -249.5t-225.5 -209t-238.5 -141.5t-225.5 -53q-75 0 -157 40t-141.5 115.5t-59.5 162.5q0 37 2 55q-168 102 -168 274 zM98 338q0 -122 64 -178q19 150 99.5 300t197 269.5t251 213.5t271.5 145t250 51q56 0 96.5 -49t40.5 -80q0 -13 -18 -13q-175 0 -359 -76t-332 -198.5t-250.5 -288.5t-121.5 -336q53 -18 129 -18q107 0 220.5 26t199 64.5t145 72.5t86.5 58q13 10 18 10t9 -4t4 -8 q0 -3 -17 -20q-29 -29 -80 -66.5t-130.5 -84t-184.5 -77.5t-209 -31q-91 0 -194 35v-43q0 -96 49 -148t141 -52q114 0 240 49t241.5 131t222 195.5t184.5 237.5t124.5 261t46.5 262q0 149 -93 236.5t-243 87.5q-100 0 -221 -34.5t-242.5 -95t-236.5 -149t-203 -189 t-141.5 -222.5t-53.5 -244zM1079 1579q0 22 48 61t71 39q16 0 23 -26q11 -45 45 -88t67.5 -68.5t60.5 -46t27 -27.5q0 -18 -22 -18q-21 0 -47.5 4t-95.5 32.5t-138 80.5q-39 29 -39 57z" />
<glyph unicode="&#xd3;" horiz-adv-x="1449" d="M-10 397q0 121 54 242t145 222t211.5 189.5t250.5 149.5t265.5 96t254.5 35q177 0 290.5 -111.5t113.5 -283.5q0 -123 -49.5 -263.5t-131 -269.5t-191 -249.5t-225.5 -209t-238.5 -141.5t-225.5 -53q-75 0 -157 40t-141.5 115.5t-59.5 162.5q0 37 2 55q-168 102 -168 274 zM98 338q0 -122 64 -178q19 150 99.5 300t197 269.5t251 213.5t271.5 145t250 51q56 0 96.5 -49t40.5 -80q0 -13 -18 -13q-175 0 -359 -76t-332 -198.5t-250.5 -288.5t-121.5 -336q53 -18 129 -18q107 0 220.5 26t199 64.5t145 72.5t86.5 58q13 10 18 10t9 -4t4 -8 q0 -3 -17 -20q-29 -29 -80 -66.5t-130.5 -84t-184.5 -77.5t-209 -31q-91 0 -194 35v-43q0 -96 49 -148t141 -52q114 0 240 49t241.5 131t222 195.5t184.5 237.5t124.5 261t46.5 262q0 149 -93 236.5t-243 87.5q-100 0 -221 -34.5t-242.5 -95t-236.5 -149t-203 -189 t-141.5 -222.5t-53.5 -244zM1069 1440q0 6 14.5 13t59.5 43.5t102 102.5q19 22 34.5 47.5t24 34.5t21.5 9q22 0 68.5 -43.5t46.5 -63.5q0 -8 -17 -21.5t-34 -23.5q-197 -119 -302 -119q-18 0 -18 21z" />
<glyph unicode="&#xd4;" horiz-adv-x="1449" d="M-10 397q0 121 54 242t145 222t211.5 189.5t250.5 149.5t265.5 96t254.5 35q177 0 290.5 -111.5t113.5 -283.5q0 -123 -49.5 -263.5t-131 -269.5t-191 -249.5t-225.5 -209t-238.5 -141.5t-225.5 -53q-75 0 -157 40t-141.5 115.5t-59.5 162.5q0 37 2 55q-168 102 -168 274 zM98 338q0 -122 64 -178q19 150 99.5 300t197 269.5t251 213.5t271.5 145t250 51q56 0 96.5 -49t40.5 -80q0 -13 -18 -13q-175 0 -359 -76t-332 -198.5t-250.5 -288.5t-121.5 -336q53 -18 129 -18q107 0 220.5 26t199 64.5t145 72.5t86.5 58q13 10 18 10t9 -4t4 -8 q0 -3 -17 -20q-29 -29 -80 -66.5t-130.5 -84t-184.5 -77.5t-209 -31q-91 0 -194 35v-43q0 -96 49 -148t141 -52q114 0 240 49t241.5 131t222 195.5t184.5 237.5t124.5 261t46.5 262q0 149 -93 236.5t-243 87.5q-100 0 -221 -34.5t-242.5 -95t-236.5 -149t-203 -189 t-141.5 -222.5t-53.5 -244zM1030 1495q0 12 10 12l13 -2q13 -2 22 -2q53 0 139.5 31.5t151.5 63.5t68 32q16 0 43.5 -29t27.5 -40q0 -4 -23.5 -22t-47 -49t-23.5 -67q0 -14 -12 -14q-3 0 -13.5 8.5t-21 23t-10.5 27.5q0 9 4 24.5t9 28t10 25.5l5 13q-64 -56 -138.5 -104 t-121.5 -48q-21 0 -56.5 33t-35.5 55z" />
<glyph unicode="&#xd5;" horiz-adv-x="1449" d="M-10 397q0 121 54 242t145 222t211.5 189.5t250.5 149.5t265.5 96t254.5 35q177 0 290.5 -111.5t113.5 -283.5q0 -123 -49.5 -263.5t-131 -269.5t-191 -249.5t-225.5 -209t-238.5 -141.5t-225.5 -53q-75 0 -157 40t-141.5 115.5t-59.5 162.5q0 37 2 55q-168 102 -168 274 zM98 338q0 -122 64 -178q19 150 99.5 300t197 269.5t251 213.5t271.5 145t250 51q56 0 96.5 -49t40.5 -80q0 -13 -18 -13q-175 0 -359 -76t-332 -198.5t-250.5 -288.5t-121.5 -336q53 -18 129 -18q107 0 220.5 26t199 64.5t145 72.5t86.5 58q13 10 18 10t9 -4t4 -8 q0 -3 -17 -20q-29 -29 -80 -66.5t-130.5 -84t-184.5 -77.5t-209 -31q-91 0 -194 35v-43q0 -96 49 -148t141 -52q114 0 240 49t241.5 131t222 195.5t184.5 237.5t124.5 261t46.5 262q0 149 -93 236.5t-243 87.5q-100 0 -221 -34.5t-242.5 -95t-236.5 -149t-203 -189 t-141.5 -222.5t-53.5 -244zM1010 1436q0 9 24 29t69 38.5t91 18.5q34 0 93 -5.5t75 -5.5q38 0 70 12.5t50 25t21 12.5q8 0 13.5 -6t5.5 -13q0 -8 -23 -40t-63 -64.5t-74 -32.5q-37 0 -118.5 27.5t-117.5 27.5q-29 0 -62 -22l-34 -23q-9 0 -14.5 6.5t-5.5 14.5z" />
<glyph unicode="&#xd6;" horiz-adv-x="1449" d="M-10 397q0 121 54 242t145 222t211.5 189.5t250.5 149.5t265.5 96t254.5 35q177 0 290.5 -111.5t113.5 -283.5q0 -123 -49.5 -263.5t-131 -269.5t-191 -249.5t-225.5 -209t-238.5 -141.5t-225.5 -53q-75 0 -157 40t-141.5 115.5t-59.5 162.5q0 37 2 55q-168 102 -168 274 zM98 338q0 -122 64 -178q19 150 99.5 300t197 269.5t251 213.5t271.5 145t250 51q56 0 96.5 -49t40.5 -80q0 -13 -18 -13q-175 0 -359 -76t-332 -198.5t-250.5 -288.5t-121.5 -336q53 -18 129 -18q107 0 220.5 26t199 64.5t145 72.5t86.5 58q13 10 18 10t9 -4t4 -8 q0 -3 -17 -20q-29 -29 -80 -66.5t-130.5 -84t-184.5 -77.5t-209 -31q-91 0 -194 35v-43q0 -96 49 -148t141 -52q114 0 240 49t241.5 131t222 195.5t184.5 237.5t124.5 261t46.5 262q0 149 -93 236.5t-243 87.5q-100 0 -221 -34.5t-242.5 -95t-236.5 -149t-203 -189 t-141.5 -222.5t-53.5 -244zM1055 1442q0 5 25.5 66.5t25.5 80.5q0 37 24 37q22 0 71.5 -50.5t49.5 -76.5q0 -30 -69 -57t-99 -27q-28 0 -28 27zM1270 1438q0 4 9 22.5t22.5 48t21.5 52.5q1 4 6 18.5t7.5 21t7 16.5t9.5 14.5t11 4.5q26 0 70.5 -40t44.5 -80q0 -36 -71 -69.5 t-112 -33.5q-26 0 -26 25z" />
<glyph unicode="&#xd7;" horiz-adv-x="634" d="M18 764q0 25 12 36t40 11q53 0 211 -197q153 168 170 199q3 7 6.5 14.5t4.5 10t4 4.5t7 2q42 0 74.5 -28t32.5 -62q0 -9 -28.5 -26.5t-96 -62.5t-136.5 -104q152 -196 152 -201q0 -19 -8.5 -24.5t-28.5 -5.5q-3 0 -13 9.5t-28 29t-36.5 40t-46 51.5t-48.5 54 q-55 -51 -108 -106.5t-78 -83t-29 -27.5q-27 0 -27 29q0 6 205 229q-56 59 -111 111t-75.5 71.5t-20.5 26.5z" />
<glyph unicode="&#xd8;" horiz-adv-x="1449" d="M-10 397q0 121 54 242t145 222t211.5 189.5t250.5 149.5t265.5 96t254.5 35q64 0 113 -14q47 85 47 108q0 31 31 31q20 0 60 -62t40 -89q0 -8 -2 -15.5t-4.5 -12t-9.5 -15.5t-12 -19q67 -55 104 -134t37 -173q0 -123 -49.5 -263.5t-131 -269.5t-191 -249.5t-225.5 -209 t-238.5 -141.5t-225.5 -53q-84 0 -174 49q-3 -5 -7 -10t-5.5 -7t-1.5 -3q-26 -43 -52 -43q-8 0 -13 6t-5 12q0 8 18 45l19 31q-62 44 -99.5 106t-37.5 132q0 37 2 55q-168 102 -168 274zM98 338q0 -122 64 -178q18 141 90.5 283t179 257.5t232 209.5t255.5 152t244 73 l90 133q-36 4 -57 4q-100 0 -221 -34.5t-242.5 -95t-236.5 -149t-203 -189t-141.5 -222.5t-53.5 -244zM283 12q0 -87 41 -137l98 148q-55 5 -139 32v-43zM287 98q53 -18 129 -18h45l573 858q-287 -102 -502.5 -338.5t-244.5 -501.5zM369 -164q43 -24 104 -24q114 0 240 49 t241.5 131t222 195.5t184.5 237.5t124.5 261t46.5 262q0 168 -121 258l-86 -114q19 -22 31 -46t12 -36q0 -13 -18 -13q-52 0 -101 -6l-686 -899q163 26 307 93t197 116q13 10 18 10t9 -4t4 -8q0 -3 -17 -20q-28 -28 -76 -64t-123.5 -81.5t-175 -77.5t-198.5 -36 q-27 -36 -74.5 -98t-64.5 -86z" />
<glyph unicode="&#xd9;" horiz-adv-x="1916" d="M-10 432q0 104 57 216t149.5 209.5t211 186t240.5 151t240.5 99.5t207.5 37q144 0 232.5 -79t88.5 -191q0 -74 -49.5 -174t-123 -196.5t-160 -207t-160 -207t-123 -196.5t-49.5 -174q0 -56 53 -56q77 0 207 84t269.5 214t272.5 274t236 276q76 98 143.5 214t67.5 159 q0 7 5 13t15 6q12 0 54.5 -51.5t42.5 -82.5q0 -34 -71 -156.5t-155.5 -257t-155.5 -285.5t-71 -234q0 -53 30 -77t64 -24q19 0 19 -14q0 -17 -52 -17q-76 0 -137 56t-61 149q0 52 10.5 99.5t40.5 110t50.5 98.5t72.5 124q-103 -115 -218 -230.5t-249 -235t-255 -194.5 t-196 -75q-58 0 -121 49t-63 107q0 66 37.5 151t98 171.5t133.5 179.5l146 186t133.5 180t98 172t37.5 152q0 69 -37.5 110t-111.5 41q-91 0 -205 -37.5t-227.5 -101t-223 -152.5t-193.5 -186.5t-135 -209t-51 -214.5q0 -63 29.5 -107t95.5 -44q67 0 140.5 40.5t136 103 t118.5 136.5t93.5 143t54.5 121q6 13 12 13q13 0 13 -19q0 -9 -7 -37q-17 -79 -67 -170t-120 -172t-163.5 -134.5t-185.5 -53.5q-99 0 -179.5 64.5t-80.5 156.5zM1524 1325q0 22 47.5 61t70.5 39q16 0 23 -26q11 -45 45 -88t68 -68.5t61 -46t27 -27.5q0 -18 -23 -18 q-123 0 -280 117q-39 29 -39 57z" />
<glyph unicode="&#xda;" horiz-adv-x="1916" d="M-10 432q0 104 57 216t149.5 209.5t211 186t240.5 151t240.5 99.5t207.5 37q144 0 232.5 -79t88.5 -191q0 -74 -49.5 -174t-123 -196.5t-160 -207t-160 -207t-123 -196.5t-49.5 -174q0 -56 53 -56q77 0 207 84t269.5 214t272.5 274t236 276q76 98 143.5 214t67.5 159 q0 7 5 13t15 6q12 0 54.5 -51.5t42.5 -82.5q0 -34 -71 -156.5t-155.5 -257t-155.5 -285.5t-71 -234q0 -53 30 -77t64 -24q19 0 19 -14q0 -17 -52 -17q-76 0 -137 56t-61 149q0 52 10.5 99.5t40.5 110t50.5 98.5t72.5 124q-103 -115 -218 -230.5t-249 -235t-255 -194.5 t-196 -75q-58 0 -121 49t-63 107q0 66 37.5 151t98 171.5t133.5 179.5l146 186t133.5 180t98 172t37.5 152q0 69 -37.5 110t-111.5 41q-91 0 -205 -37.5t-227.5 -101t-223 -152.5t-193.5 -186.5t-135 -209t-51 -214.5q0 -63 29.5 -107t95.5 -44q67 0 140.5 40.5t136 103 t118.5 136.5t93.5 143t54.5 121q6 13 12 13q13 0 13 -19q0 -9 -7 -37q-17 -79 -67 -170t-120 -172t-163.5 -134.5t-185.5 -53.5q-99 0 -179.5 64.5t-80.5 156.5zM1626 1159q0 6 14.5 13.5t59.5 44t102 102.5q15 18 28.5 37.5t19.5 29.5t14 16.5t18 6.5q22 0 68.5 -43 t46.5 -63q0 -8 -17 -22.5t-34 -23.5q-195 -118 -301 -118q-19 0 -19 20z" />
<glyph unicode="&#xdb;" horiz-adv-x="1916" d="M-10 432q0 104 57 216t149.5 209.5t211 186t240.5 151t240.5 99.5t207.5 37q144 0 232.5 -79t88.5 -191q0 -74 -49.5 -174t-123 -196.5t-160 -207t-160 -207t-123 -196.5t-49.5 -174q0 -56 53 -56q77 0 207 84t269.5 214t272.5 274t236 276q76 98 143.5 214t67.5 159 q0 7 5 13t15 6q12 0 54.5 -51.5t42.5 -82.5q0 -34 -71 -156.5t-155.5 -257t-155.5 -285.5t-71 -234q0 -53 30 -77t64 -24q19 0 19 -14q0 -17 -52 -17q-76 0 -137 56t-61 149q0 52 10.5 99.5t40.5 110t50.5 98.5t72.5 124q-103 -115 -218 -230.5t-249 -235t-255 -194.5 t-196 -75q-58 0 -121 49t-63 107q0 66 37.5 151t98 171.5t133.5 179.5l146 186t133.5 180t98 172t37.5 152q0 69 -37.5 110t-111.5 41q-91 0 -205 -37.5t-227.5 -101t-223 -152.5t-193.5 -186.5t-135 -209t-51 -214.5q0 -63 29.5 -107t95.5 -44q67 0 140.5 40.5t136 103 t118.5 136.5t93.5 143t54.5 121q6 13 12 13q13 0 13 -19q0 -9 -7 -37q-17 -79 -67 -170t-120 -172t-163.5 -134.5t-185.5 -53.5q-99 0 -179.5 64.5t-80.5 156.5zM1526 1257q0 13 10 13l13 -2q13 -2 22 -2q53 0 139 32t151 63.5t68 31.5q16 0 44 -29.5t28 -40.5 q0 -4 -23.5 -21.5t-47 -48.5t-23.5 -67q0 -15 -13 -15q-3 0 -13.5 8.5t-21 23.5t-10.5 28q0 9 4.5 24t9.5 28t10 25t5 13q-64 -56 -138.5 -104t-121.5 -48q-21 0 -56.5 33t-35.5 55z" />
<glyph unicode="&#xdc;" horiz-adv-x="1916" d="M-10 432q0 104 57 216t149.5 209.5t211 186t240.5 151t240.5 99.5t207.5 37q144 0 232.5 -79t88.5 -191q0 -74 -49.5 -174t-123 -196.5t-160 -207t-160 -207t-123 -196.5t-49.5 -174q0 -56 53 -56q77 0 207 84t269.5 214t272.5 274t236 276q76 98 143.5 214t67.5 159 q0 7 5 13t15 6q12 0 54.5 -51.5t42.5 -82.5q0 -34 -71 -156.5t-155.5 -257t-155.5 -285.5t-71 -234q0 -53 30 -77t64 -24q19 0 19 -14q0 -17 -52 -17q-76 0 -137 56t-61 149q0 52 10.5 99.5t40.5 110t50.5 98.5t72.5 124q-103 -115 -218 -230.5t-249 -235t-255 -194.5 t-196 -75q-58 0 -121 49t-63 107q0 66 37.5 151t98 171.5t133.5 179.5l146 186t133.5 180t98 172t37.5 152q0 69 -37.5 110t-111.5 41q-91 0 -205 -37.5t-227.5 -101t-223 -152.5t-193.5 -186.5t-135 -209t-51 -214.5q0 -63 29.5 -107t95.5 -44q67 0 140.5 40.5t136 103 t118.5 136.5t93.5 143t54.5 121q6 13 12 13q13 0 13 -19q0 -9 -7 -37q-17 -79 -67 -170t-120 -172t-163.5 -134.5t-185.5 -53.5q-99 0 -179.5 64.5t-80.5 156.5zM1550 1217q0 5 26 66.5t26 80.5q0 37 24 37q22 0 71.5 -50.5t49.5 -76.5q0 -30 -69 -57t-99 -27q-29 0 -29 27z M1765 1212q0 4 9.5 22.5t23 47.5t21.5 53q1 4 5.5 18.5t7.5 21.5t7.5 17t9.5 14.5t11 4.5q26 0 70 -40.5t44 -80.5q0 -36 -70.5 -69t-111.5 -33q-27 0 -27 24z" />
<glyph unicode="&#xdd;" horiz-adv-x="1789" d="M-12 463q0 84 32 170t87.5 161t129.5 146.5t158 130t173.5 107.5t174.5 82.5t163 52t138 18.5q113 0 201 -78.5t88 -183.5q0 -68 -49 -167t-118.5 -199.5t-139.5 -200t-119 -193.5t-49 -155q0 -28 19 -47t63 -19q65 0 216 88t300.5 214t204.5 220q8 14 49 84t56 94.5 t51.5 85t57.5 90.5t51.5 73t56 72t49.5 50q32 29 57 29q7 0 16 -13t9 -20q0 -2 -8.5 -8t-22 -16t-23.5 -21q-47 -52 -77 -94t-86.5 -154t-124.5 -284q-159 -398 -283 -627q76 -11 111.5 -38t35.5 -58q0 -19 -12 -19q-3 0 -5.5 2t-5.5 6t-5 6q-41 41 -138 62 q-65 -119 -126 -212.5t-137 -182.5t-153.5 -147.5t-172 -94t-195.5 -35.5q-94 0 -174 75t-80 155q0 77 84 165t210.5 158.5t287 117.5t303.5 48q38 64 76 134t60 114t58 118.5t50 102.5q-52 -53 -175.5 -143t-266 -169t-210.5 -79q-70 0 -136 48t-66 128q0 64 52.5 158.5 t128 193.5t151 199.5t128 201t52.5 173.5q0 151 -129 151q-87 0 -212.5 -47t-256.5 -131t-244 -187.5t-185.5 -230t-72.5 -243.5q0 -94 38 -137.5t103 -43.5q118 0 283.5 144.5t267.5 318.5q16 29 25 29q14 0 14 -19q0 -9 -19 -49q-95 -188 -252.5 -331.5t-287.5 -143.5 q-76 0 -143 26t-113.5 83t-46.5 135zM516 -569q0 -78 111 -78q86 0 177 44.5t176.5 124.5t163.5 179.5t150 218.5q-126 -1 -269 -54.5t-253 -129.5t-183 -160.5t-73 -144.5zM1540 1497q0 6 14.5 13.5t59.5 44t102 102.5q15 18 28.5 37.5t19.5 29.5t14 16.5t18 6.5 q22 0 68.5 -43.5t46.5 -63.5q0 -8 -17 -21.5t-34 -23.5q-195 -118 -301 -118q-19 0 -19 20z" />
<glyph unicode="&#xdf;" horiz-adv-x="796" d="M-63 119q0 81 42 188t109 211.5t151 207.5t165.5 181t156 126t119.5 48q61 0 110.5 -58t49.5 -116q0 -50 -28.5 -100.5t-66 -86.5t-82 -67t-69.5 -45t-35 -18q55 -8 88 -21q24 -10 50 -26.5t52.5 -52.5t26.5 -76q0 -38 -23 -92.5t-66 -112.5t-97.5 -108t-125.5 -82.5 t-142 -32.5q-58 0 -131.5 52.5t-73.5 96.5q0 28 23.5 71.5t50 74t36.5 30.5q21 0 21 -18q0 -1 -17.5 -25t-35 -59.5t-17.5 -63.5q0 -31 17.5 -48t37.5 -17q75 0 155 49t136.5 116t93.5 133.5t37 104.5q0 49 -30 49q-28 0 -79.5 -14t-64.5 -14q-25 0 -58.5 44t-33.5 70 q0 7 24.5 27t61.5 45.5t80 61.5t80 73t61.5 82.5t24.5 87.5q0 23 -13.5 35t-35.5 12q-32 0 -90.5 -51.5t-126 -134.5t-138 -194t-127.5 -224.5t-93 -231.5t-36 -210q0 -21 -26 -21q-17 0 -57.5 50t-40.5 94z" />
<glyph unicode="&#xe0;" horiz-adv-x="768" d="M-96 80q0 79 79.5 183t191 177.5t196.5 73.5q59 0 110 -41t51 -78q0 -23 -6 -39t-14 -16q-5 0 -14 9t-9 16q0 3 5.5 13.5t5.5 20.5q0 7 -10.5 17t-22.5 10q-67 0 -148.5 -47.5t-146 -113t-108.5 -137.5t-44 -120q0 -18 15 -18q49 0 280 231q111 111 138 111 q16 0 49 -36.5t33 -59.5q0 -9 -23.5 -35.5t-46.5 -59.5t-23 -59q0 -14 9.5 -21.5t21.5 -7.5q44 0 118 46.5t125 92.5l52 46q8 8 12 8q8 0 8 -8q0 -5 -20 -25q-8 -9 -22 -23t-55.5 -51t-79.5 -65t-85.5 -51t-83.5 -23q-54 0 -92.5 30.5t-38.5 78.5l4 71q-49 -49 -82 -81 t-76.5 -71t-74 -59t-47.5 -20q-46 0 -88.5 42t-42.5 89zM205 743q0 22 48 61.5t71 39.5q4 0 7 -1t5 -3t3.5 -4t2.5 -5t1.5 -5t1.5 -5t1 -4q11 -45 45 -88t68 -68t61 -45.5t27 -27.5q0 -19 -23 -19q-123 0 -280 117q-39 29 -39 57z" />
<glyph unicode="&#xe1;" horiz-adv-x="768" d="M-96 80q0 79 79.5 183t191 177.5t196.5 73.5q59 0 110 -41t51 -78q0 -23 -6 -39t-14 -16q-5 0 -14 9t-9 16q0 3 5.5 13.5t5.5 20.5q0 7 -10.5 17t-22.5 10q-67 0 -148.5 -47.5t-146 -113t-108.5 -137.5t-44 -120q0 -18 15 -18q49 0 280 231q111 111 138 111 q16 0 49 -36.5t33 -59.5q0 -9 -23.5 -35.5t-46.5 -59.5t-23 -59q0 -14 9.5 -21.5t21.5 -7.5q44 0 118 46.5t125 92.5l52 46q8 8 12 8q8 0 8 -8q0 -5 -20 -25q-8 -9 -22 -23t-55.5 -51t-79.5 -65t-85.5 -51t-83.5 -23q-54 0 -92.5 30.5t-38.5 78.5l4 71q-49 -49 -82 -81 t-76.5 -71t-74 -59t-47.5 -20q-46 0 -88.5 42t-42.5 89zM268 629q0 6 14.5 13t59.5 43.5t102 102.5q19 22 34.5 47.5t24 34.5t21.5 9q22 0 68.5 -43.5t46.5 -63.5q0 -8 -17 -21.5t-34 -23.5q-197 -119 -301 -119q-19 0 -19 21z" />
<glyph unicode="&#xe2;" horiz-adv-x="768" d="M-96 80q0 79 79.5 183t191 177.5t196.5 73.5q59 0 110 -41t51 -78q0 -23 -6 -39t-14 -16q-5 0 -14 9t-9 16q0 3 5.5 13.5t5.5 20.5q0 7 -10.5 17t-22.5 10q-67 0 -148.5 -47.5t-146 -113t-108.5 -137.5t-44 -120q0 -18 15 -18q49 0 280 231q111 111 138 111 q16 0 49 -36.5t33 -59.5q0 -9 -23.5 -35.5t-46.5 -59.5t-23 -59q0 -14 9.5 -21.5t21.5 -7.5q44 0 118 46.5t125 92.5l52 46q8 8 12 8q8 0 8 -8q0 -5 -20 -25q-8 -9 -22 -23t-55.5 -51t-79.5 -65t-85.5 -51t-83.5 -23q-54 0 -92.5 30.5t-38.5 78.5l4 71q-49 -49 -82 -81 t-76.5 -71t-74 -59t-47.5 -20q-46 0 -88.5 42t-42.5 89zM233 674q0 12 11 12l13 -2q13 -2 22 -2q53 0 139 32t151 63.5t68 31.5q16 0 44 -29.5t28 -40.5q0 -4 -23.5 -21.5t-47.5 -48.5t-24 -67q0 -14 -12 -14q-3 0 -13.5 8.5t-21 23t-10.5 27.5q0 9 4.5 24t9.5 28t10 25 t5 13q-63 -55 -137.5 -103t-122.5 -48q-21 0 -57 33t-36 55z" />
<glyph unicode="&#xe3;" horiz-adv-x="768" d="M-96 80q0 79 79.5 183t191 177.5t196.5 73.5q59 0 110 -41t51 -78q0 -23 -6 -39t-14 -16q-5 0 -14 9t-9 16q0 3 5.5 13.5t5.5 20.5q0 7 -10.5 17t-22.5 10q-67 0 -148.5 -47.5t-146 -113t-108.5 -137.5t-44 -120q0 -18 15 -18q49 0 280 231q111 111 138 111 q16 0 49 -36.5t33 -59.5q0 -9 -23.5 -35.5t-46.5 -59.5t-23 -59q0 -14 9.5 -21.5t21.5 -7.5q44 0 118 46.5t125 92.5l52 46q8 8 12 8q8 0 8 -8q0 -5 -20 -25q-8 -9 -22 -23t-55.5 -51t-79.5 -65t-85.5 -51t-83.5 -23q-54 0 -92.5 30.5t-38.5 78.5l4 71q-49 -49 -82 -81 t-76.5 -71t-74 -59t-47.5 -20q-46 0 -88.5 42t-42.5 89zM207 612q0 9 24 29t69 38.5t91 18.5q34 0 93.5 -5t74.5 -5q38 0 70 12t50 24.5t21 12.5q8 0 13.5 -5.5t5.5 -12.5q0 -8 -23 -40t-63 -64.5t-74 -32.5q-37 0 -118 27.5t-117 27.5q-29 0 -63 -23l-34 -22q-9 0 -14.5 6 t-5.5 14z" />
<glyph unicode="&#xe4;" horiz-adv-x="768" d="M-96 80q0 79 79.5 183t191 177.5t196.5 73.5q59 0 110 -41t51 -78q0 -23 -6 -39t-14 -16q-5 0 -14 9t-9 16q0 3 5.5 13.5t5.5 20.5q0 7 -10.5 17t-22.5 10q-67 0 -148.5 -47.5t-146 -113t-108.5 -137.5t-44 -120q0 -18 15 -18q49 0 280 231q111 111 138 111 q16 0 49 -36.5t33 -59.5q0 -9 -23.5 -35.5t-46.5 -59.5t-23 -59q0 -14 9.5 -21.5t21.5 -7.5q44 0 118 46.5t125 92.5l52 46q8 8 12 8q8 0 8 -8q0 -5 -20 -25q-8 -9 -22 -23t-55.5 -51t-79.5 -65t-85.5 -51t-83.5 -23q-54 0 -92.5 30.5t-38.5 78.5l4 71q-49 -49 -82 -81 t-76.5 -71t-74 -59t-47.5 -20q-46 0 -88.5 42t-42.5 89zM276 612q0 5 26 67t26 81q0 37 24 37q22 0 71.5 -50.5t49.5 -76.5q0 -30 -69 -57t-99 -27q-29 0 -29 26zM492 608q0 4 9 22.5t22.5 48t21.5 52.5q1 4 5.5 18.5t7.5 21.5t7.5 17t9.5 14.5t11 4.5q26 0 70 -40.5 t44 -80.5q0 -36 -70.5 -69t-111.5 -33q-26 0 -26 24z" />
<glyph unicode="&#xe5;" horiz-adv-x="768" d="M-96 80q0 79 79.5 183t191 177.5t196.5 73.5q59 0 110 -41t51 -78q0 -23 -6 -39t-14 -16q-5 0 -14 9t-9 16q0 3 5.5 13.5t5.5 20.5q0 7 -10.5 17t-22.5 10q-67 0 -148.5 -47.5t-146 -113t-108.5 -137.5t-44 -120q0 -18 15 -18q49 0 280 231q111 111 138 111 q16 0 49 -36.5t33 -59.5q0 -9 -23.5 -35.5t-46.5 -59.5t-23 -59q0 -14 9.5 -21.5t21.5 -7.5q44 0 118 46.5t125 92.5l52 46q8 8 12 8q8 0 8 -8q0 -5 -20 -25q-8 -9 -22 -23t-55.5 -51t-79.5 -65t-85.5 -51t-83.5 -23q-54 0 -92.5 30.5t-38.5 78.5l4 71q-49 -49 -82 -81 t-76.5 -71t-74 -59t-47.5 -20q-46 0 -88.5 42t-42.5 89zM334 702q0 77 69.5 142t141.5 65q41 0 76.5 -39t35.5 -88q0 -64 -62 -134t-132 -70q-41 0 -85 42.5t-44 81.5zM416 657q0 -14 10 -24t20 -10q60 0 110 55t50 94q0 8 -8.5 17.5t-19.5 9.5q-48 0 -105 -56t-57 -86z" />
<glyph unicode="&#xe6;" horiz-adv-x="841" d="M-96 80q0 79 79.5 184t191 179.5t196.5 74.5q55 0 104 -39q47 45 121 45q41 0 68.5 -35.5t27.5 -60.5q0 -52 -209 -178q-14 -46 -14 -88q0 -54 19 -88.5t44 -34.5q32 0 76 20.5t83.5 49.5t74 58.5t55.5 50.5l21 20q8 8 12 8q8 0 8 -8q0 -5 -20 -25q-8 -9 -23 -24 t-58.5 -53t-85 -67t-96 -53t-98.5 -24q-85 0 -130.5 48.5t-45.5 131.5q-11 -10 -44 -42t-47.5 -46t-42.5 -40t-44 -39t-36 -28t-33.5 -21.5t-22.5 -6.5q-46 0 -88.5 42t-42.5 89zM20 8q0 -18 15 -18q44 0 278 229q24 111 99 199q-78 -18 -171 -90.5t-157 -163.5t-64 -156z M494 293q143 101 143 133q0 16 -10 16q-33 0 -133 -149z" />
<glyph unicode="&#xe7;" horiz-adv-x="542" d="M-74 84q0 73 38 153t94 140.5t120 99.5t115 39q40 0 73 -26.5t33 -65.5q0 -49 -57 -109q-6 -6 -37 -6q-4 0 -4 4q0 7 6 13q58 58 58 94q0 1 -1 2.5t-2.5 4t-5 4t-8.5 1.5q-37 0 -87.5 -33t-96.5 -83.5t-78.5 -118t-32.5 -129.5q0 -38 18 -59t48 -21q46 0 106.5 26 t114 62.5t100.5 73t75 62.5l28 26q8 8 12 8q3 0 5.5 -3t2.5 -5q0 -5 -20 -25q-11 -10 -29.5 -27.5t-73.5 -62t-105.5 -80t-114 -66.5t-111.5 -36q18 -22 18 -35t-22 -46t-31 -42q56 14 73 14q25 0 57 -40.5t32 -82.5q0 -49 -56 -94t-125 -45q-35 0 -63.5 16.5t-40.5 33.5 t-12 26q0 14 12 14q2 0 8.5 -4.5t19 -9t27.5 -4.5q59 0 105.5 51t46.5 94q0 16 -13 16q-31 0 -73 -32.5t-47 -32.5q-17 0 -31 24.5t-14 44.5q0 11 38.5 67.5t42.5 66.5q-57 8 -96 45.5t-39 97.5z" />
<glyph unicode="&#xe8;" horiz-adv-x="475" d="M-59 164q0 66 31 136t76 122t94.5 85.5t86.5 33.5q42 0 68.5 -36t26.5 -61q0 -35 -68.5 -101.5t-157.5 -123.5q-6 -18 -6 -72q0 -48 19.5 -78t54.5 -30q31 0 74 20.5t82.5 49.5t74.5 58.5t57 50.5l21 20q8 8 12 8q9 0 9 -8q0 -4 -21 -25q-8 -9 -22.5 -24t-58 -53t-85 -67 t-96 -53t-98.5 -24q-80 0 -127 46.5t-47 125.5zM70 768q0 21 44.5 57.5t65.5 36.5q13 0 21 -24q9 -35 31 -68t48 -56.5t50.5 -42t40.5 -31t16 -17.5q0 -17 -20 -17t-45.5 4t-89.5 30.5t-128 74.5q-34 29 -34 53zM100 252q65 46 117.5 104.5t52.5 85.5q0 15 -10 15 q-27 0 -72.5 -53.5t-87.5 -151.5z" />
<glyph unicode="&#xe9;" horiz-adv-x="475" d="M-59 164q0 66 31 136t76 122t94.5 85.5t86.5 33.5q42 0 68.5 -36t26.5 -61q0 -35 -68.5 -101.5t-157.5 -123.5q-6 -18 -6 -72q0 -48 19.5 -78t54.5 -30q31 0 74 20.5t82.5 49.5t74.5 58.5t57 50.5l21 20q8 8 12 8q9 0 9 -8q0 -4 -21 -25q-8 -9 -22.5 -24t-58 -53t-85 -67 t-96 -53t-98.5 -24q-80 0 -127 46.5t-47 125.5zM100 252q65 46 117.5 104.5t52.5 85.5q0 15 -10 15q-27 0 -72.5 -53.5t-87.5 -151.5zM109 633q0 6 13.5 13t56.5 41.5t97 96.5q15 17 27.5 36t18.5 28t14 15.5t18 6.5q20 0 64.5 -40.5t44.5 -59.5q0 -16 -49 -43 q-188 -115 -287 -115q-18 0 -18 21z" />
<glyph unicode="&#xea;" horiz-adv-x="475" d="M-59 164q0 66 31 136t76 122t94.5 85.5t86.5 33.5q42 0 68.5 -36t26.5 -61q0 -35 -68.5 -101.5t-157.5 -123.5q-6 -18 -6 -72q0 -48 19.5 -78t54.5 -30q31 0 74 20.5t82.5 49.5t74.5 58.5t57 50.5l21 20q8 8 12 8q9 0 9 -8q0 -4 -21 -25q-8 -9 -22.5 -24t-58 -53t-85 -67 t-96 -53t-98.5 -24q-80 0 -127 46.5t-47 125.5zM25 696q0 13 10 13q1 0 13.5 -2t21.5 -2q53 0 139 31.5t151 63t68 31.5q16 0 44 -29.5t28 -39.5q0 -4 -23.5 -21.5t-47 -48.5t-23.5 -67q0 -15 -13 -15q-3 0 -13.5 8.5t-21 23.5t-10.5 28q0 9 4.5 24t9.5 28t10 25t5 13 q-64 -56 -138.5 -104t-121.5 -48q-21 0 -56.5 33t-35.5 55zM100 252q65 46 117.5 104.5t52.5 85.5q0 15 -10 15q-27 0 -72.5 -53.5t-87.5 -151.5z" />
<glyph unicode="&#xeb;" horiz-adv-x="475" d="M-59 164q0 66 31 136t76 122t94.5 85.5t86.5 33.5q42 0 68.5 -36t26.5 -61q0 -35 -68.5 -101.5t-157.5 -123.5q-6 -18 -6 -72q0 -48 19.5 -78t54.5 -30q31 0 74 20.5t82.5 49.5t74.5 58.5t57 50.5l21 20q8 8 12 8q9 0 9 -8q0 -4 -21 -25q-8 -9 -22.5 -24t-58 -53t-85 -67 t-96 -53t-98.5 -24q-80 0 -127 46.5t-47 125.5zM63 647q0 5 26 67t26 81q0 36 24 36q22 0 71.5 -50t49.5 -76q0 -30 -69 -57t-99 -27q-29 0 -29 26zM100 252q65 46 117.5 104.5t52.5 85.5q0 15 -10 15q-27 0 -72.5 -53.5t-87.5 -151.5zM279 643q0 4 9 22.5t22.5 48 t21.5 52.5q1 4 5.5 18.5t7.5 21.5t7.5 17t9.5 14.5t11 4.5q26 0 70 -40.5t44 -80.5q0 -36 -70.5 -69.5t-111.5 -33.5q-26 0 -26 25z" />
<glyph unicode="&#xec;" horiz-adv-x="417" d="M-76 86q0 53 102.5 220.5t112.5 193.5q15 30 39 30q35 0 66.5 -32.5t31.5 -63.5q0 -15 -59 -96t-117.5 -169t-58.5 -122q0 -27 22 -27q35 0 84.5 22.5t95 54.5t86 64t65.5 55l24 22q8 8 14 8q3 0 5.5 -3t2.5 -5q0 -3 -22 -25q-10 -10 -27.5 -26t-68 -57.5t-96 -73 t-100 -57.5t-91.5 -26q-30 0 -70.5 34t-40.5 79zM96 784q0 22 48 61.5t71 39.5q16 0 23 -27q11 -45 45 -88t67.5 -68t60.5 -45.5t27 -27.5q0 -19 -22 -19q-21 0 -47.5 4t-95.5 32.5t-138 80.5q-39 29 -39 57z" />
<glyph unicode="&#xed;" horiz-adv-x="417" d="M-76 86q0 53 102.5 220.5t112.5 193.5q15 30 39 30q35 0 66.5 -32.5t31.5 -63.5q0 -15 -59 -96t-117.5 -169t-58.5 -122q0 -27 22 -27q35 0 84.5 22.5t95 54.5t86 64t65.5 55l24 22q8 8 14 8q3 0 5.5 -3t2.5 -5q0 -3 -22 -25q-10 -10 -27.5 -26t-68 -57.5t-96 -73 t-100 -57.5t-91.5 -26q-30 0 -70.5 34t-40.5 79zM98 653q0 6 14.5 13.5t59.5 44t102 102.5q15 18 28.5 37.5t19.5 29.5t14 16.5t18 6.5q22 0 68.5 -43t46.5 -63q0 -8 -17 -21.5t-34 -23.5q-197 -119 -301 -119q-19 0 -19 20z" />
<glyph unicode="&#xee;" horiz-adv-x="417" d="M-76 86q0 53 102.5 220.5t112.5 193.5q15 30 39 30q35 0 66.5 -32.5t31.5 -63.5q0 -15 -59 -96t-117.5 -169t-58.5 -122q0 -27 22 -27q35 0 84.5 22.5t95 54.5t86 64t65.5 55l24 22q8 8 14 8q3 0 5.5 -3t2.5 -5q0 -3 -22 -25q-10 -10 -27.5 -26t-68 -57.5t-96 -73 t-100 -57.5t-91.5 -26q-30 0 -70.5 34t-40.5 79zM39 705q0 12 10 12q1 0 13 -2t22 -2q53 0 139 31.5t151 63.5t68 32q16 0 44 -29.5t28 -40.5q0 -4 -23.5 -21.5t-47 -48.5t-23.5 -67q0 -15 -12 -15q-3 0 -13.5 8.5t-21.5 23.5t-11 28q0 9 4.5 24t9.5 28t10 25t5 13 q-64 -56 -138.5 -104t-121.5 -48q-21 0 -56.5 33t-35.5 56z" />
<glyph unicode="&#xef;" horiz-adv-x="417" d="M-76 86q0 53 102.5 220.5t112.5 193.5q15 30 39 30q35 0 66.5 -32.5t31.5 -63.5q0 -15 -59 -96t-117.5 -169t-58.5 -122q0 -27 22 -27q35 0 84.5 22.5t95 54.5t86 64t65.5 55l24 22q8 8 14 8q3 0 5.5 -3t2.5 -5q0 -3 -22 -25q-10 -10 -27.5 -26t-68 -57.5t-96 -73 t-100 -57.5t-91.5 -26q-30 0 -70.5 34t-40.5 79zM109 666q0 5 25.5 66.5t25.5 80.5q0 37 24 37q22 0 71.5 -50.5t49.5 -76.5q0 -30 -69 -57t-99 -27q-28 0 -28 27zM324 662q0 4 9 22.5t22.5 47.5t21.5 52q1 4 5.5 18.5t7.5 21.5t7.5 17t9.5 14.5t11 4.5q26 0 70 -40.5 t44 -80.5q0 -36 -70.5 -69t-111.5 -33q-26 0 -26 25z" />
<glyph unicode="&#xf0;" horiz-adv-x="495" d="M-37 158q0 52 38.5 118.5t90.5 119.5t106.5 89.5t84.5 36.5q13 0 29 -2.5t26 -5.5l10 -2q-20 21 -45.5 43t-38.5 35q-104 -86 -125 -86q-31 0 -63.5 19.5t-32.5 31.5q0 16 12 16q2 0 9 -1t14 -1q32 0 135 70q-49 52 -49 100q0 31 41.5 64t60.5 33q15 0 15 -15 q0 -1 -7.5 -19t-7.5 -32q0 -23 39 -74q100 66 150 66q14 0 14 -10t-18 -17q-9 -3 -18.5 -8t-23 -14.5t-21 -15.5t-27 -22t-27.5 -22q42 -55 65 -87.5t47.5 -81.5t24.5 -81q0 -65 -48.5 -166.5t-124.5 -182.5t-142 -81q-72 0 -132.5 63.5t-60.5 121.5zM98 80q0 -30 12 -47 t27 -17q47 0 105.5 53t102.5 142t44 178q0 26 -13 39.5t-30 13.5q-27 0 -85.5 -56t-110.5 -144.5t-52 -161.5z" />
<glyph unicode="&#xf1;" horiz-adv-x="761" d="M-135 45q0 15 58.5 102.5t117.5 187.5t59 146q0 25 21 25q31 0 66.5 -36.5t35.5 -74.5q0 -9 -3.5 -20.5t-12.5 -28t-17 -29.5t-23.5 -39t-25.5 -42q89 64 193 124t153 60q27 0 50.5 -37t23.5 -61q0 -7 -25.5 -38t-56.5 -67t-56.5 -84.5t-25.5 -85.5q0 -20 21 -20 q38 0 87.5 21.5t93 52.5t81.5 62.5t60 52.5l22 22q8 8 12 8t7 -3t3 -5t-5.5 -8t-10.5 -12l-6 -5q-10 -10 -26.5 -26t-63.5 -57t-88 -72.5t-88.5 -57t-77.5 -25.5q-42 0 -85.5 45t-43.5 93q0 40 21.5 91t43 87.5t21.5 40.5t-4 4q-10 0 -51.5 -20.5t-104.5 -62.5t-115 -89 q-55 -50 -93 -105.5t-53 -84.5t-22 -29q-16 0 -41.5 35t-25.5 65zM190 588q0 9 24.5 29t69.5 38.5t91 18.5q33 0 93 -5t75 -5q38 0 70 12t50 24.5t21 12.5q8 0 13 -6t5 -13q0 -8 -23 -40t-62.5 -64.5t-73.5 -32.5q-37 0 -118.5 27.5t-117.5 27.5q-29 0 -63 -22l-33 -23 q-9 0 -15 6.5t-6 14.5z" />
<glyph unicode="&#xf2;" d="M-33 131q0 55 23 113q0 2 -1 6.5t-1 7.5q0 62 31.5 119.5t78 95.5t98.5 61t95 23q70 0 118 -40.5t48 -104.5q0 -174 -172 -326q74 5 149.5 50t132.5 102q7 8 13 8q4 0 7 -3t3 -5t-23 -25q-32 -30 -53 -47t-63.5 -45.5t-91.5 -44t-103 -17.5q-89 -71 -145 -71 q-45 0 -94.5 39.5t-49.5 103.5zM37 334q48 56 96 100q73 64 109 64q18 0 46.5 -39t28.5 -58q0 -13 -26 -26q-64 -38 -131.5 -101.5t-98.5 -126.5q53 -59 158 -65q69 63 116.5 152.5t47.5 183.5q0 51 -29 77.5t-82 26.5q-66 0 -138 -58t-97 -130zM39 80q0 -28 14 -45t37 -17 q43 0 103 41q-94 14 -148 62q-6 -16 -6 -41zM174 807q0 22 48 61t71 39q4 0 7 -1t5 -3l3.5 -3.5t2.5 -5t1.5 -5t1.5 -5.5l1 -3q11 -45 45 -88t68 -68.5t61 -46t27 -27.5q0 -18 -22 -18q-21 0 -47.5 4t-95.5 32.5t-138 80.5q-39 29 -39 57z" />
<glyph unicode="&#xf3;" d="M-33 131q0 55 23 113q0 2 -1 6.5t-1 7.5q0 62 31.5 119.5t78 95.5t98.5 61t95 23q70 0 118 -40.5t48 -104.5q0 -174 -172 -326q74 5 149.5 50t132.5 102q7 8 13 8q4 0 7 -3t3 -5t-23 -25q-32 -30 -53 -47t-63.5 -45.5t-91.5 -44t-103 -17.5q-89 -71 -145 -71 q-45 0 -94.5 39.5t-49.5 103.5zM37 334q48 56 96 100q73 64 109 64q18 0 46.5 -39t28.5 -58q0 -13 -26 -26q-64 -38 -131.5 -101.5t-98.5 -126.5q53 -59 158 -65q69 63 116.5 152.5t47.5 183.5q0 51 -29 77.5t-82 26.5q-66 0 -138 -58t-97 -130zM39 80q0 -28 14 -45t37 -17 q43 0 103 41q-94 14 -148 62q-6 -16 -6 -41zM195 645q0 6 14.5 13.5t59.5 44t102 102.5q15 18 28.5 37.5t19.5 29.5t14 16.5t18 6.5q22 0 68 -43.5t46 -63.5q0 -8 -17 -21.5t-34 -23.5q-195 -118 -301 -118q-18 0 -18 20z" />
<glyph unicode="&#xf4;" d="M-33 131q0 55 23 113q0 2 -1 6.5t-1 7.5q0 62 31.5 119.5t78 95.5t98.5 61t95 23q70 0 118 -40.5t48 -104.5q0 -174 -172 -326q74 5 149.5 50t132.5 102q7 8 13 8q4 0 7 -3t3 -5t-23 -25q-32 -30 -53 -47t-63.5 -45.5t-91.5 -44t-103 -17.5q-89 -71 -145 -71 q-45 0 -94.5 39.5t-49.5 103.5zM37 334q48 56 96 100q73 64 109 64q18 0 46.5 -39t28.5 -58q0 -13 -26 -26q-64 -38 -131.5 -101.5t-98.5 -126.5q53 -59 158 -65q69 63 116.5 152.5t47.5 183.5q0 51 -29 77.5t-82 26.5q-66 0 -138 -58t-97 -130zM39 80q0 -28 14 -45t37 -17 q43 0 103 41q-94 14 -148 62q-6 -16 -6 -41zM137 692q0 13 10 13q1 0 13 -2.5t22 -2.5q53 0 139.5 32t151.5 63.5t68 31.5q16 0 43.5 -29t27.5 -40q0 -4 -23.5 -21.5t-47 -48.5t-23.5 -67q0 -15 -12 -15q-3 0 -13.5 8.5t-21 23.5t-10.5 28q0 9 4 24t9 28t10 25t5 13 q-64 -56 -138.5 -104t-121.5 -48q-21 0 -56.5 33t-35.5 55z" />
<glyph unicode="&#xf5;" d="M-33 131q0 55 23 113q0 2 -1 6.5t-1 7.5q0 62 31.5 119.5t78 95.5t98.5 61t95 23q70 0 118 -40.5t48 -104.5q0 -174 -172 -326q74 5 149.5 50t132.5 102q7 8 13 8q4 0 7 -3t3 -5t-23 -25q-32 -30 -53 -47t-63.5 -45.5t-91.5 -44t-103 -17.5q-89 -71 -145 -71 q-45 0 -94.5 39.5t-49.5 103.5zM37 334q48 56 96 100q73 64 109 64q18 0 46.5 -39t28.5 -58q0 -13 -26 -26q-64 -38 -131.5 -101.5t-98.5 -126.5q53 -59 158 -65q69 63 116.5 152.5t47.5 183.5q0 51 -29 77.5t-82 26.5q-66 0 -138 -58t-97 -130zM39 80q0 -28 14 -45t37 -17 q43 0 103 41q-94 14 -148 62q-6 -16 -6 -41zM102 657q0 9 24.5 29t69.5 38.5t91 18.5q33 0 93 -5t75 -5q38 0 70 12.5t50 24.5t21 12q8 0 13 -5.5t5 -12.5q0 -8 -23 -40t-62.5 -64.5t-73.5 -32.5q-37 0 -118.5 27.5t-117.5 27.5q-29 0 -63 -22l-33 -23q-9 0 -15 6t-6 14z " />
<glyph unicode="&#xf6;" d="M-33 131q0 55 23 113q0 2 -1 6.5t-1 7.5q0 62 31.5 119.5t78 95.5t98.5 61t95 23q70 0 118 -40.5t48 -104.5q0 -174 -172 -326q74 5 149.5 50t132.5 102q7 8 13 8q4 0 7 -3t3 -5t-23 -25q-32 -30 -53 -47t-63.5 -45.5t-91.5 -44t-103 -17.5q-89 -71 -145 -71 q-45 0 -94.5 39.5t-49.5 103.5zM37 334q48 56 96 100q73 64 109 64q18 0 46.5 -39t28.5 -58q0 -13 -26 -26q-64 -38 -131.5 -101.5t-98.5 -126.5q53 -59 158 -65q69 63 116.5 152.5t47.5 183.5q0 51 -29 77.5t-82 26.5q-66 0 -138 -58t-97 -130zM39 80q0 -28 14 -45t37 -17 q43 0 103 41q-94 14 -148 62q-6 -16 -6 -41zM178 659q0 5 25.5 67t25.5 81q0 37 25 37q22 0 71.5 -50.5t49.5 -76.5q0 -30 -69 -57t-99 -27q-29 0 -29 26zM393 655q0 4 9 22.5t22.5 48t21.5 52.5q1 4 5.5 18.5t7.5 21.5t7.5 17t9.5 14.5t11 4.5q26 0 70.5 -40.5t44.5 -80.5 q0 -36 -70.5 -69t-111.5 -33q-27 0 -27 24z" />
<glyph unicode="&#xf7;" horiz-adv-x="796" d="M18 662q0 11 9 16.5t18 5.5q4 0 20.5 -7t63 -14.5t123.5 -7.5q68 0 261 12.5t212 12.5q7 0 15 -7t8 -18q0 -10 -20 -24.5t-54 -24.5q-132 -38 -298 -61t-315 -23q-11 0 -27 50t-16 90zM262 360q0 28 11.5 62t11.5 39q0 11 11 22t23 11q27 0 67 -33.5t40 -59.5 q0 -28 -24 -48.5t-48 -30.5q-18 -7 -39 -7q-8 0 -18.5 1t-11.5 1q-23 0 -23 43zM313 737q2 27 16.5 66t14.5 59q0 23 25 23t65.5 -32t40.5 -60q0 -24 -28 -51t-44 -27q-13 0 -34 -3t-35 -3q-7 0 -14 6.5t-7 21.5z" />
<glyph unicode="&#xf8;" d="M-2 168q0 65 35 133t86.5 118.5t112 83t110.5 32.5q34 0 76 -25q43 77 43 88q0 20 22 20q19 0 46.5 -47t27.5 -75q0 -6 -2.5 -12.5t-9 -15.5t-11.5 -15.5t-15 -18.5l-15 -18q14 -35 14 -68q0 -56 -61.5 -144t-143.5 -154t-135 -66q-4 0 -12 1t-12 1l-33 -45 q-23 -39 -51 -39q-8 0 -14.5 5.5t-6.5 10.5q0 3 23 51l24 37q-43 26 -70.5 70t-27.5 92zM113 86q0 -22 10 -39q105 156 225 350q-89 -38 -162 -140.5t-73 -170.5zM190 31q87 21 181 133t94 205q-16 -20 -122.5 -150.5t-152.5 -187.5z" />
<glyph unicode="&#xf9;" horiz-adv-x="786" d="M-86 63q0 59 51 148t106.5 167t61.5 99q6 23 23 23q28 0 66 -42t38 -81q0 -19 -55 -96.5t-110.5 -162.5t-55.5 -120q0 -10 8 -10q23 0 70 37.5t99.5 91.5l105 108t96.5 91.5t63 37.5q27 0 53.5 -35.5t26.5 -62.5q0 -13 -36 -84t-36 -88q0 -14 15 -14q48 0 118.5 42 t117.5 84l46 42q9 8 15 8q3 0 5.5 -3t2.5 -5t-23 -25q-8 -8 -22 -20.5t-54 -45t-77 -57t-83.5 -45t-80.5 -20.5q-41 0 -76 24t-35 72q0 29 8.5 58t8.5 42q0 6 -8 6q-5 0 -73.5 -72.5t-146 -145t-104.5 -72.5q-37 0 -83 37t-46 89zM238 664q0 22 47.5 61t70.5 39q16 0 23 -27 q11 -45 45 -88t68 -68t61 -45.5t27 -27.5q0 -19 -23 -19q-21 0 -47.5 4t-95.5 32.5t-138 80.5q-38 28 -38 58z" />
<glyph unicode="&#xfa;" horiz-adv-x="786" d="M-86 63q0 59 51 148t106.5 167t61.5 99q6 23 23 23q28 0 66 -42t38 -81q0 -19 -55 -96.5t-110.5 -162.5t-55.5 -120q0 -10 8 -10q23 0 70 37.5t99.5 91.5l105 108t96.5 91.5t63 37.5q27 0 53.5 -35.5t26.5 -62.5q0 -13 -36 -84t-36 -88q0 -14 15 -14q48 0 118.5 42 t117.5 84l46 42q9 8 15 8q3 0 5.5 -3t2.5 -5t-23 -25q-8 -8 -22 -20.5t-54 -45t-77 -57t-83.5 -45t-80.5 -20.5q-41 0 -76 24t-35 72q0 29 8.5 58t8.5 42q0 6 -8 6q-5 0 -73.5 -72.5t-146 -145t-104.5 -72.5q-37 0 -83 37t-46 89zM344 508q0 6 14.5 13.5t59.5 44t102 102.5 q15 18 28.5 37.5t19.5 29.5t14 16.5t18 6.5q22 0 68.5 -43.5t46.5 -63.5q0 -8 -17 -21.5t-34 -23.5q-197 -119 -302 -119q-18 0 -18 21z" />
<glyph unicode="&#xfb;" horiz-adv-x="786" d="M-86 63q0 59 51 148t106.5 167t61.5 99q6 23 23 23q28 0 66 -42t38 -81q0 -19 -55 -96.5t-110.5 -162.5t-55.5 -120q0 -10 8 -10q23 0 70 37.5t99.5 91.5l105 108t96.5 91.5t63 37.5q27 0 53.5 -35.5t26.5 -62.5q0 -13 -36 -84t-36 -88q0 -14 15 -14q48 0 118.5 42 t117.5 84l46 42q9 8 15 8q3 0 5.5 -3t2.5 -5t-23 -25q-8 -8 -22 -20.5t-54 -45t-77 -57t-83.5 -45t-80.5 -20.5q-41 0 -76 24t-35 72q0 29 8.5 58t8.5 42q0 6 -8 6q-5 0 -73.5 -72.5t-146 -145t-104.5 -72.5q-37 0 -83 37t-46 89zM248 618q0 13 10 13l13 -2q13 -2 22 -2 q53 0 139 31.5t151 63.5t68 32q16 0 44 -29.5t28 -40.5q0 -4 -23.5 -21.5t-47 -48.5t-23.5 -67q0 -15 -13 -15q-3 0 -13.5 8.5t-21 23.5t-10.5 28q0 9 4.5 24t9.5 28t10 25t5 13q-64 -56 -138.5 -104t-121.5 -48q-21 0 -56.5 33t-35.5 55z" />
<glyph unicode="&#xfc;" horiz-adv-x="786" d="M-86 63q0 59 51 148t106.5 167t61.5 99q6 23 23 23q28 0 66 -42t38 -81q0 -19 -55 -96.5t-110.5 -162.5t-55.5 -120q0 -10 8 -10q23 0 70 37.5t99.5 91.5l105 108t96.5 91.5t63 37.5q27 0 53.5 -35.5t26.5 -62.5q0 -13 -36 -84t-36 -88q0 -14 15 -14q48 0 118.5 42 t117.5 84l46 42q9 8 15 8q3 0 5.5 -3t2.5 -5t-23 -25q-8 -8 -22 -20.5t-54 -45t-77 -57t-83.5 -45t-80.5 -20.5q-41 0 -76 24t-35 72q0 29 8.5 58t8.5 42q0 6 -8 6q-5 0 -73.5 -72.5t-146 -145t-104.5 -72.5q-37 0 -83 37t-46 89zM270 575q0 5 26 67t26 81q0 37 24 37 q22 0 71.5 -50.5t49.5 -76.5q0 -30 -69 -57t-99 -27q-29 0 -29 26zM485 571q0 4 9.5 22.5t23 47.5t21.5 53q1 4 5.5 18.5t7.5 21.5t7.5 17t9.5 14.5t11 4.5q26 0 70 -40.5t44 -80.5q0 -36 -70.5 -69t-111.5 -33q-27 0 -27 24z" />
<glyph unicode="&#xfd;" horiz-adv-x="626" d="M-395 -584q0 76 54 149.5t139.5 128.5t184 95t195.5 59q38 77 72 153.5t48 114.5l15 38q-60 -56 -148 -110t-126 -54q-32 0 -72.5 34t-40.5 91q0 39 49 115.5t98.5 148.5t49.5 100q0 21 24 21q25 0 68 -37.5t43 -65.5q0 -23 -106.5 -173t-106.5 -183q0 -10 12 -10 q38 0 132.5 62.5t166.5 148.5q35 43 91.5 123.5t90.5 119.5t58 39q10 0 23.5 -19.5t13.5 -29.5q0 -3 -2 -5.5t-6.5 -5.5t-6.5 -5q-43 -30 -70 -69.5t-59 -129.5q-96 -266 -157 -395h8q55 0 95 -18t54.5 -37t14.5 -33q0 -10 -12 -10q-3 0 -10.5 9t-18.5 19.5t-40 19.5t-69 9 q-25 0 -43 -2q-55 -114 -109.5 -202t-123.5 -168.5t-150 -124.5t-168 -44q-69 0 -112 39.5t-43 93.5zM-362 -584q0 -35 22 -54t53 -19q58 0 119.5 38.5t119 107.5t107 145t97.5 169q-138 -27 -255.5 -84t-190 -137.5t-72.5 -165.5zM256 582q0 6 14.5 13t59.5 43.5t102 102.5 q15 18 28.5 37.5t19.5 29.5t14 16.5t18 6.5q22 0 68.5 -43t46.5 -63q0 -16 -52 -45q-197 -119 -301 -119q-18 0 -18 21z" />
<glyph unicode="&#xff;" horiz-adv-x="626" d="M-395 -584q0 76 54 149.5t139.5 128.5t184 95t195.5 59q38 77 72 153.5t48 114.5l15 38q-60 -56 -148 -110t-126 -54q-32 0 -72.5 34t-40.5 91q0 39 49 115.5t98.5 148.5t49.5 100q0 21 24 21q25 0 68 -37.5t43 -65.5q0 -23 -106.5 -173t-106.5 -183q0 -10 12 -10 q38 0 132.5 62.5t166.5 148.5q35 43 91.5 123.5t90.5 119.5t58 39q10 0 23.5 -19.5t13.5 -29.5q0 -3 -2 -5.5t-6.5 -5.5t-6.5 -5q-43 -30 -70 -69.5t-59 -129.5q-96 -266 -157 -395h8q55 0 95 -18t54.5 -37t14.5 -33q0 -10 -12 -10q-3 0 -10.5 9t-18.5 19.5t-40 19.5t-69 9 q-25 0 -43 -2q-55 -114 -109.5 -202t-123.5 -168.5t-150 -124.5t-168 -44q-69 0 -112 39.5t-43 93.5zM-362 -584q0 -35 22 -54t53 -19q58 0 119.5 38.5t119 107.5t107 145t97.5 169q-138 -27 -255.5 -84t-190 -137.5t-72.5 -165.5zM201 623q0 5 25.5 66.5t25.5 80.5 q0 37 24 37q22 0 71.5 -50.5t49.5 -76.5q0 -30 -69 -57t-99 -27q-28 0 -28 27zM416 618q0 4 9 22.5t22.5 48t21.5 52.5q1 4 5.5 18.5t7.5 21.5t7.5 17t9.5 14.5t11 4.5q26 0 70.5 -40.5t44.5 -80.5q0 -36 -71 -69t-112 -33q-26 0 -26 24z" />
<glyph unicode="&#x152;" horiz-adv-x="2578" d="M-10 397q0 121 54 242t145 222t211.5 189.5t250.5 149.5t265.5 96t254.5 35q177 0 290.5 -111.5t113.5 -283.5q0 -62 -12 -127q79 95 213.5 188.5t292.5 167.5t337 120t334 46q85 0 133.5 -46.5t48.5 -102.5q0 -53 -65.5 -131.5t-152.5 -145t-160 -100.5q-47 -21 -64 -21 q-16 0 -38.5 18.5t-22.5 33.5q0 14 12 16q88 22 196 84.5t184.5 136t76.5 121.5q0 53 -84 53q-127 0 -270.5 -35t-271.5 -92.5t-247.5 -131t-205.5 -149.5t-137.5 -150.5t-51.5 -131.5q0 -34 22 -54t66 -20q74 0 201.5 41t229 82t110.5 41q25 0 52.5 -51.5t27.5 -83.5 q0 -6 -8 -13.5t-26 -18t-31 -17.5t-40.5 -21t-38.5 -20q-275 -149 -401 -234q-287 -195 -287 -327q0 -46 27 -70t78 -24q124 0 250.5 32t228 80.5t200.5 115t167.5 125.5t129.5 122q9 8 13 8t8 -4.5t4 -7.5q0 -2 -6.5 -9t-12.5 -13l-6 -7q-62 -62 -137.5 -125.5t-177 -133 t-202.5 -122t-216.5 -87t-218.5 -34.5q-82 0 -165 64.5t-83 136.5q0 54 31 112.5t77.5 109t120 107t139.5 99t156.5 92.5t150.5 80.5t140 69.5l-2 6q-12 -3 -24 -9q-369 -133 -490 -133q-64 0 -120.5 32.5t-75.5 88.5q-96 -205 -261.5 -392.5t-357 -304t-348.5 -116.5 q-75 0 -157 40t-141.5 115.5t-59.5 162.5q0 37 2 55q-168 102 -168 274zM98 338q0 -122 64 -178q19 150 99.5 300t197 269.5t251 213.5t271.5 145t250 51q56 0 96.5 -49t40.5 -80q0 -13 -18 -13q-175 0 -359 -76t-332 -198.5t-250.5 -288.5t-121.5 -336q53 -18 129 -18 q107 0 220.5 26t199 64.5t145 72.5t86.5 58q13 10 18 10t9 -4t4 -8q0 -3 -17 -20q-29 -29 -80 -66.5t-130.5 -84t-184.5 -77.5t-209 -31q-91 0 -194 35v-43q0 -96 49 -148t141 -52q114 0 240 49t241.5 131t222 195.5t184.5 237.5t124.5 261t46.5 262q0 149 -93 236.5 t-243 87.5q-100 0 -221 -34.5t-242.5 -95t-236.5 -149t-203 -189t-141.5 -222.5t-53.5 -244z" />
<glyph unicode="&#x153;" horiz-adv-x="948" d="M-2 182q0 78 53 160.5t134 136t157 53.5q40 0 94 -36t74 -90q104 135 192 135q42 0 68.5 -36t26.5 -61q0 -36 -69 -103.5t-157 -123.5q-6 -18 -6 -70q0 -48 19.5 -78t54.5 -30q33 0 77 20.5t83.5 49.5t73.5 58.5t55 50.5l20 20q9 8 13 8q8 0 8 -8q0 -4 -21 -25 q-8 -9 -22.5 -24t-58 -53t-85 -67t-96 -53t-98.5 -24q-78 0 -125.5 45t-48.5 121q-62 -71 -128 -119.5t-108 -48.5q-68 0 -124 60.5t-56 131.5zM115 92q0 -25 14 -40t37 -15q55 0 125.5 56t121 136.5t50.5 143.5q0 20 -12.5 32.5t-30.5 12.5q-69 0 -142.5 -61.5t-118 -138 t-44.5 -126.5zM573 254q66 47 118 104t52 84q0 15 -10 15q-27 0 -72.5 -53t-87.5 -150z" />
<glyph unicode="&#x178;" horiz-adv-x="1789" d="M-12 463q0 84 32 170t87.5 161t129.5 146.5t158 130t173.5 107.5t174.5 82.5t163 52t138 18.5q113 0 201 -78.5t88 -183.5q0 -68 -49 -167t-118.5 -199.5t-139.5 -200t-119 -193.5t-49 -155q0 -28 19 -47t63 -19q65 0 216 88t300.5 214t204.5 220q8 14 49 84t56 94.5 t51.5 85t57.5 90.5t51.5 73t56 72t49.5 50q32 29 57 29q7 0 16 -13t9 -20q0 -2 -8.5 -8t-22 -16t-23.5 -21q-47 -52 -77 -94t-86.5 -154t-124.5 -284q-159 -398 -283 -627q76 -11 111.5 -38t35.5 -58q0 -19 -12 -19q-3 0 -5.5 2t-5.5 6t-5 6q-41 41 -138 62 q-65 -119 -126 -212.5t-137 -182.5t-153.5 -147.5t-172 -94t-195.5 -35.5q-94 0 -174 75t-80 155q0 77 84 165t210.5 158.5t287 117.5t303.5 48q38 64 76 134t60 114t58 118.5t50 102.5q-52 -53 -175.5 -143t-266 -169t-210.5 -79q-70 0 -136 48t-66 128q0 64 52.5 158.5 t128 193.5t151 199.5t128 201t52.5 173.5q0 151 -129 151q-87 0 -212.5 -47t-256.5 -131t-244 -187.5t-185.5 -230t-72.5 -243.5q0 -94 38 -137.5t103 -43.5q118 0 283.5 144.5t267.5 318.5q16 29 25 29q14 0 14 -19q0 -9 -19 -49q-95 -188 -252.5 -331.5t-287.5 -143.5 q-76 0 -143 26t-113.5 83t-46.5 135zM516 -569q0 -78 111 -78q86 0 177 44.5t176.5 124.5t163.5 179.5t150 218.5q-126 -1 -269 -54.5t-253 -129.5t-183 -160.5t-73 -144.5zM1495 1260q0 5 25.5 66.5t25.5 80.5q0 37 25 37q22 0 71.5 -50.5t49.5 -76.5q0 -30 -69 -57 t-99 -27q-29 0 -29 27zM1710 1255q0 4 9 22.5t22.5 48t21.5 52.5q1 4 5.5 18.5t7.5 21.5t7.5 17t9.5 14.5t11 4.5q26 0 70.5 -40.5t44.5 -80.5q0 -36 -70.5 -69t-111.5 -33q-27 0 -27 24z" />
<glyph unicode="&#x2c6;" horiz-adv-x="495" d="M14 717q0 12 11 12q1 0 13 -2t21 -2q53 0 139.5 31.5t151.5 63.5t68 32q16 0 43.5 -29.5t27.5 -40.5q0 -4 -23.5 -21.5t-47 -48.5t-23.5 -67q0 -14 -12 -14q-3 0 -13.5 8.5t-21 23t-10.5 27.5q0 9 4.5 24t9.5 28t10 25t5 13q-63 -54 -138 -102.5t-123 -48.5 q-21 0 -56.5 33t-35.5 55z" />
<glyph unicode="&#x2dc;" horiz-adv-x="569" d="M29 649q0 9 24 29t69 38.5t91 18.5q33 0 93 -5t75 -5q38 0 70 12.5t50 24.5t21 12q8 0 13.5 -5.5t5.5 -12.5q0 -8 -23 -40.5t-63 -65t-74 -32.5q-37 0 -118.5 28t-117.5 28q-29 0 -63 -22l-33 -23q-9 0 -14.5 6t-5.5 14z" />
<glyph unicode="&#x2000;" horiz-adv-x="873" />
<glyph unicode="&#x2001;" horiz-adv-x="1747" />
<glyph unicode="&#x2002;" horiz-adv-x="873" />
<glyph unicode="&#x2003;" horiz-adv-x="1747" />
<glyph unicode="&#x2004;" horiz-adv-x="582" />
<glyph unicode="&#x2005;" horiz-adv-x="436" />
<glyph unicode="&#x2006;" horiz-adv-x="291" />
<glyph unicode="&#x2007;" horiz-adv-x="291" />
<glyph unicode="&#x2008;" horiz-adv-x="218" />
<glyph unicode="&#x2009;" horiz-adv-x="349" />
<glyph unicode="&#x200a;" horiz-adv-x="97" />
<glyph unicode="&#x2010;" horiz-adv-x="632" d="M35 395q0 27 16 27q5 0 15 -10q21 -21 65 -21q123 0 240.5 12.5t146.5 12.5q40 0 60 -27t20 -55q0 -17 -12 -17q-8 0 -13 9q-12 28 -59 28q-71 0 -206 -48t-175 -48q-34 0 -66 53t-32 84z" />
<glyph unicode="&#x2011;" horiz-adv-x="632" d="M35 395q0 27 16 27q5 0 15 -10q21 -21 65 -21q123 0 240.5 12.5t146.5 12.5q40 0 60 -27t20 -55q0 -17 -12 -17q-8 0 -13 9q-12 28 -59 28q-71 0 -206 -48t-175 -48q-34 0 -66 53t-32 84z" />
<glyph unicode="&#x2012;" horiz-adv-x="632" d="M35 395q0 27 16 27q5 0 15 -10q21 -21 65 -21q123 0 240.5 12.5t146.5 12.5q40 0 60 -27t20 -55q0 -17 -12 -17q-8 0 -13 9q-12 28 -59 28q-71 0 -206 -48t-175 -48q-34 0 -66 53t-32 84z" />
<glyph unicode="&#x2013;" horiz-adv-x="870" d="M4 375q0 18 16 18q3 0 19.5 -8t36.5 -8q88 0 333 27.5t334 27.5q59 0 86 -19t27 -46q0 -31 -20 -31q-11 0 -11 10l1 5q1 5 1 9q0 13 -34 13q-104 0 -244 -35t-261.5 -70t-181.5 -35q-34 0 -59.5 32t-34 62.5t-8.5 47.5z" />
<glyph unicode="&#x2014;" horiz-adv-x="1232" d="M12 381q0 14 15 14q6 0 24.5 -9t40.5 -9q79 0 472.5 31.5t527.5 31.5q63 0 96 -19.5t33 -49.5q0 -27 -17 -27q-10 0 -10 10l1 6q1 5 1 9q0 12 -37 12q-130 0 -350.5 -36.5t-412 -72.5t-249.5 -36q-51 0 -93 45.5t-42 99.5z" />
<glyph unicode="&#x2018;" horiz-adv-x="176" d="M18 942q0 29 39 82.5t86 95t68 41.5q18 0 18 -16q0 -3 -21 -38t-42 -89.5t-21 -106.5q0 -21 4.5 -34t4.5 -15q0 -22 -23 -22q-36 0 -74.5 36.5t-38.5 65.5z" />
<glyph unicode="&#x2019;" horiz-adv-x="129" d="M-35 868q0 1 18.5 33t37 79.5t18.5 86.5q0 30 -9.5 51.5t-9.5 22.5q0 18 23 18q22 0 71.5 -36.5t49.5 -82.5q0 -48 -77.5 -118t-106.5 -70q-15 0 -15 16z" />
<glyph unicode="&#x201a;" horiz-adv-x="202" d="M-4 113q0 16 12 16q50 0 94.5 -15.5t44.5 -39.5q0 -55 -45.5 -151.5t-76.5 -96.5q-9 0 -15 5t-6 13q0 2 11.5 27t11.5 53q0 33 -13 68q-18 53 -18 121z" />
<glyph unicode="&#x201c;" horiz-adv-x="354" d="M0 942q0 29 39 82.5t86 95t68 41.5q18 0 18 -16q0 -3 -21 -38t-42 -89.5t-21 -106.5q0 -21 4 -34t4 -15q0 -22 -22 -22q-36 0 -74.5 36.5t-38.5 65.5zM195 963q0 48 77.5 118t106.5 70q14 0 14 -16q0 -1 -18.5 -33t-37 -79.5t-18.5 -86.5q0 -30 9.5 -51.5t9.5 -22.5 q0 -18 -23 -18q-22 0 -71 36.5t-49 82.5z" />
<glyph unicode="&#x201d;" horiz-adv-x="385" d="M-35 868q0 1 18.5 33t37 79.5t18.5 86.5q0 30 -9.5 51.5t-9.5 22.5q0 18 23 18q22 0 71.5 -36.5t49.5 -82.5q0 -48 -77.5 -118t-106.5 -70q-15 0 -15 16zM152 856q0 3 21 38t42 89.5t21 106.5q0 21 -4.5 34t-4.5 15q0 22 23 22q35 0 73.5 -36.5t38.5 -65.5t-39 -82.5 t-85.5 -95t-67.5 -41.5q-18 0 -18 16z" />
<glyph unicode="&#x201e;" horiz-adv-x="374" d="M-4 113q0 16 12 16q50 0 94.5 -15.5t44.5 -39.5q0 -55 -45.5 -151.5t-76.5 -96.5q-9 0 -15 5t-6 13q0 2 11.5 27t11.5 53q0 33 -13 68q-18 53 -18 121zM201 113q0 16 12 16q50 0 94.5 -15.5t44.5 -39.5q0 -55 -46 -151.5t-77 -96.5q-20 0 -20 18q0 2 11 27t11 53 q0 36 -12 68q-18 53 -18 121z" />
<glyph unicode="&#x2022;" horiz-adv-x="215" d="M18 401q0 21 14.5 65t14.5 58q0 13 4.5 19t18.5 6q30 0 70 -33.5t40 -60.5q0 -24 -27 -51t-40 -29q-30 -6 -68 -6q-27 0 -27 32z" />
<glyph unicode="&#x2026;" horiz-adv-x="753" d="M23 2q0 28 6 54.5t12.5 46t7.5 24.5q3 25 25 25q27 0 66.5 -33.5t39.5 -59.5q0 -28 -23.5 -48.5t-47.5 -30.5q-32 -13 -72 -13q-14 0 -14 35zM276 18q0 40 23 101q11 33 35 33q27 0 66.5 -33.5t39.5 -59.5q0 -28 -23.5 -48.5t-47.5 -30.5q-17 -7 -39 -7q-8 0 -19 1t-12 1 q-23 0 -23 43zM528 18q0 27 15.5 54.5t15.5 56.5q0 13 4.5 19t18.5 6q30 0 70 -34t40 -61q0 -25 -27.5 -52t-39.5 -27q-9 0 -37.5 -3.5t-36.5 -3.5q-23 0 -23 45z" />
<glyph unicode="&#x202f;" horiz-adv-x="349" />
<glyph unicode="&#x2039;" horiz-adv-x="483" d="M8 465q0 61 29 131.5t70.5 128t85.5 106t77 76t41 27.5q28 0 71.5 -58t43.5 -83q0 -7 -28.5 -30.5t-69 -59t-81 -79.5t-69 -103.5t-28.5 -119.5q0 -67 29 -127t70 -99.5t82 -68.5t70 -45.5t29 -19.5q0 -14 -7 -21.5t-28 -7.5q-4 0 -26.5 10t-57.5 30.5t-75 48.5t-80.5 67 t-73.5 83t-53.5 100t-20.5 114z" />
<glyph unicode="&#x203a;" horiz-adv-x="454" d="M14 154q0 7 28.5 30.5t69.5 58.5t81.5 79t69 103.5t28.5 119.5q0 67 -25 129.5t-60.5 104.5t-71 74t-60.5 51t-25 22q0 28 33 28q7 0 42.5 -21.5t87.5 -64.5t101 -97.5t84 -132.5t35 -157q0 -61 -29.5 -131.5t-71.5 -128t-86.5 -106t-76.5 -76t-39 -27.5 q-28 0 -71.5 58.5t-43.5 83.5z" />
<glyph unicode="&#x205f;" horiz-adv-x="436" />
<glyph unicode="&#x20ac;" horiz-adv-x="933" d="M2 487q0 19 12 19q8 0 25.5 -8.5t30.5 -8.5q39 0 90 11q4 16 12 34.5t12 32.5q-44 -12 -69 -12q-19 0 -57 57.5t-38 81.5q0 6 4.5 11.5t12.5 5.5q10 0 25.5 -9.5t33.5 -9.5q13 0 29.5 2t30.5 4.5t40.5 8t45.5 8.5q87 171 221 284t270 113q49 0 114.5 -26t109.5 -56 t44 -45q0 -3 -7.5 -10.5t-10.5 -7.5q-7 0 -28.5 18.5t-54 36.5t-66.5 18q-92 0 -206.5 -82.5t-203.5 -214.5q91 15 156 15q74 0 119.5 -34t45.5 -62q0 -19 -18 -19q-3 0 -8.5 12.5t-23 24.5t-48.5 12q-117 0 -297 -67q-26 -50 -43 -90q139 32 223 32q74 0 116 -22.5 t42 -46.5q0 -8 -5.5 -13.5t-12.5 -5.5q-3 0 -7.5 4.5t-10.5 10t-23 10t-41 4.5t-48 -2.5t-43 -5t-43.5 -9.5l-38.5 -11t-39.5 -13.5t-35 -13.5t-37 -15.5t-33.5 -13.5q-28 -98 -28 -174q0 -37 2.5 -65.5t13.5 -64t30 -58.5t55 -39.5t85 -16.5q63 0 124.5 27.5t107.5 70.5 t79.5 87t53.5 85q18 33 20 33q17 0 37 -15t20 -26q0 -13 -40 -59.5t-101 -99.5t-148.5 -94.5t-166.5 -41.5q-113 0 -202 90t-89 220q0 49 8 98q-12 -2 -29 -2q-26 0 -63 43t-37 65z" />
<glyph unicode="&#x2122;" horiz-adv-x="1263" d="M59 1094q0 10 13 10q1 0 42 -17.5t85 -17.5q111 0 214.5 14.5t129.5 14.5q68 0 105.5 -31t37.5 -61q0 -17 -12 -17q-13 0 -17 8q-13 15 -24 19t-37 4q-69 0 -164 -25q35 -40 35 -59q0 -20 -37 -79t-81 -138t-56 -139l-3 -18t-3.5 -17.5t-4 -13t-6 -10.5t-8.5 -3 q-22 0 -22 64q0 67 20.5 142t41 131.5t20.5 78.5v29q-87 -25 -115 -25q-59 0 -106.5 64t-47.5 92zM440 590q0 3 4 4.5t10.5 3.5t10.5 4q1 1 7.5 4.5t9.5 6t13 11.5t21 21.5t30 35.5t44 54q45 57 90.5 121.5t68.5 100.5l23 36q8 72 8 99q0 6 8.5 12t22.5 6q24 0 64 -26.5 t40 -51.5q0 -49 -35.5 -184t-35.5 -156q107 145 252 395q1 1 3.5 6t4 6.5t4.5 5t7 4.5t9 1q27 0 69 -36t42 -68q0 -17 -40 -103.5t-80 -186.5t-40 -151q0 -26 -20 -26q-35 0 -35 106q0 37 9 115.5t19 137.5l9 60q-18 -29 -56 -91.5t-68.5 -113t-63.5 -102.5t-54.5 -82 t-28.5 -30q-19 0 -27.5 22.5t-8.5 95.5q0 46 4 105.5t8 96t6 44.5q-33 -74 -115 -227.5t-108 -153.5q-36 0 -70.5 23.5t-34.5 44.5z" />
<glyph unicode="&#x25fc;" horiz-adv-x="593" d="M0 0v594h594v-594h-594z" />
</font>
</defs>
</svg>
