<?xml version="1.0" standalone="no"?>
<!DOCTYPE svg PUBLIC "-//W3C//DTD SVG 1.1//EN" "http://www.w3.org/Graphics/SVG/1.1/DTD/svg11.dtd">
<svg xmlns="http://www.w3.org/2000/svg">
<metadata>Generated by Fontastic.me</metadata>
<defs>
<font id="glyphicons" horiz-adv-x="512">
<font-face font-family="glyphicons" units-per-em="512" ascent="480" descent="-32"/>
<missing-glyph horiz-adv-x="512" />

<glyph unicode="&#57344;" d="M405 512l-309 0l-75-80l0-432l320 0c36 0 64 29 64 64l0 299c0 35-28 64-64 64l-261 0l42 42l262 0c43 0 64-21 64-64l0-341l43 43l0 320c0 42-43 85-86 85m-298-357c0 9 2 13 9 18c6 3 57 20 76 28l0 19c-10 3-21 18-21 28l0 43c0 23 15 41 42 42c28-1 43-19 43-42l0-43c0-10-11-25-21-28l0-19c19-8 70-25 76-28c7-5 9-9 9-18l0-22c0-3-2-5-5-5l-204 0c-2 0-4 2-4 5l0 22z"/>
<glyph unicode="&#57345;" d="M256 512c-141 0-256-115-256-256c0-141 115-256 256-256c141 0 256 115 256 256c0 141-115 256-256 256m-203-256c0 105 78 192 182 203l0-406c-104 11-182 98-182 203"/>
<glyph unicode="&#57346;" d="M309 320l-21 0l0 192l-64 0l0-192l-21 0c-12 0-22-10-22-21l0-64c0-12 10-22 22-22l106 0c12 0 22 10 22 22l0 64c0 11-10 21-22 21m0-64l-106 0l0 11l106 0z m171 171l-21 0l0 85l-64 0l0-85l-22 0c-11 0-21-10-21-22l0-64c0-11 10-21 21-21l107 0c12 0 21 10 21 21l0 64c0 12-9 22-21 22m0-64l-107 0l0 10l107 0z m-256-171l64 0l0-192l-64 0z m-85 21l-22 0l0 299l-64 0l0-299l-21 0c-12 0-21-9-21-21l0-64c0-12 9-21 21-21l107 0c11 0 21 9 21 21l0 64c0 12-10 21-21 21m0-64l-107 0l0 11l107 0z m256 150l64 0l0-299l-64 0z m-342-214l64 0l0-85l-64 0z"/>
<glyph unicode="&#57347;" d="M494 161l-177 148l0 143c0 30-20 60-60 60c-41 0-62-30-62-60l0-143l-177-148c-4-3-8-11-8-17l0-35c0-5 4-8 9-5l196 102l0-123l-53-43c-5-4-8-11-8-17l0-15c0-6 4-9 9-8l73 22c5 1 35 1 40 0l73-22c5-1 9 2 9 8l0 15c0 6-3 13-8 17l-53 43l0 123l196-102c5-2 9 0 9 6l0 34c0 6-4 14-8 17"/>
<glyph unicode="&#57348;" d="M255 438c-116 0-211-95-211-211c0-116 95-211 211-211c116 0 211 95 211 211c0 116-95 211-211 211m0-364c-84 0-153 68-153 153c0 84 69 153 153 153c85 0 153-69 153-153c0-85-68-153-153-153m-224 278l-24 28c-11 12-9 30 3 41l81 68c12 11 32 8 42-4l28-33c-52-21-97-58-126-106z m474 28l-30-35c-28 47-72 85-125 106l28 33c10 13 30 15 42 5l81-68c13-10 15-28 4-41m-211-153c0-21-18-38-39-38c-14 0-26 7-33 19l-34 0c-5 0-10 4-10 9l0 19c0 5 5 10 10 10l34 0c3 10 8 11 14 14l0 72c0 5 4 10 10 10l18 0c6 0 10-5 10-10l0-72c10-7 20-19 20-33"/>
<glyph unicode="&#57349;" d="M18 384l0-256c-10 0-18 8-18 18l0 220c0 10 8 18 18 18m476 0l0-256c10 0 18 8 18 18l0 220c0 10-8 18-18 18m-439 18c-10 0-18-8-18-18l0-256c0-10 8-18 18-18l18 0l0 292l-18 0m402 0l-18 0l0-292l18 0c10 0 18 8 18 18l0 256c0 10-8 18-18 18m-55 19c10 0 19-9 19-19l0-292c0-10-9-19-19-19l-292 0c-10 0-19 9-19 19l0 292c0 10 9 19 19 19l292 0m-55-59c0 4 0 7-4 7l0 0l-137-34c-4-1-5-5-5-9l0-121c0 0-14 2-26-3c-21-7-35-24-30-39c4-11 15-18 30-18c6 0 44 5 44 38l0 104l110 25l0-80c0 0-14 1-26-3c-21-8-35-25-30-40c4-12 17-19 32-19c5 0 42 4 42 31z"/>
<glyph unicode="&#57350;" d="M85 213c0 6 5 11 11 11l320 0c6 0 11-5 11-11l0-42c0-6-5-11-11-11l-320 0c-6 0-11 5-11 11z m-85 86c0-6 5-11 11-11l490 0c6 0 11 5 11 11l0 42c0 6-5 11-11 11l-490 0c-6 0-11-5-11-11z m85 128c0-6 5-11 11-11l320 0c6 0 11 5 11 11l0 42c0 6-5 11-11 11l-320 0c-6 0-11-5-11-11z m-85-384c0-6 5-11 11-11l490 0c6 0 11 5 11 11l0 42c0 6-5 11-11 11l-490 0c-6 0-11-5-11-11z"/>
<glyph unicode="&#57351;" d="M384 171c0-6-5-11-11-11l-362 0c-6 0-11 5-11 11l0 42c0 6 5 11 11 11l362 0c6 0 11-5 11-11l0-42z m85 170c0 6-5 11-11 11l-447 0c-6 0-11-5-11-11l0-42c0-6 5-11 11-11l447 0c6 0 11 5 11 11l0 42z m-171 128c0 6-4 11-10 11l-277 0c-6 0-11-5-11-11l0-42c0-6 5-11 11-11l277 0c6 0 10 5 10 11l0 42z m214-384c0 6-5 11-11 11l-490 0c-6 0-11-5-11-11l0-42c0-6 5-11 11-11l490 0c6 0 11 5 11 11z"/>
<glyph unicode="&#57352;" d="M128 213c0 6 5 11 11 11l362 0c6 0 11-5 11-11l0-42c0-6-5-11-11-11l-362 0c-6 0-11 5-11 11l0 42z m-85 86c0-6 5-11 11-11l447 0c6 0 11 5 11 11l0 42c0 6-5 11-11 11l-447 0c-6 0-11-5-11-11z m171 128c0-6 4-11 10-11l277 0c6 0 11 5 11 11l0 42c0 6-5 11-11 11l-277 0c-6 0-10-5-10-11z m-214-384c0-6 5-11 11-11l490 0c6 0 11 5 11 11l0 42c0 6-5 11-11 11l-490 0c-6 0-11-5-11-11z"/>
<glyph unicode="&#57353;" d="M501 190l-137-20c-6-1-7-5-3-9l36-36c-26-27-55-47-97-56l0 284c21 15 42 42 42 74c0 47-39 85-86 85c-47 0-85-38-85-85c0-32 22-59 43-74l0-284c-42 9-72 29-98 57l36 35c4 5 2 9-4 9l-137 20c-6 1-10-3-9-9l20-137c0-6 5-7 9-3l39 39c47-49 113-80 186-80c73 0 139 31 185 81l40-40c5-5 9-3 9 3l20 137c1 6-3 10-9 9m-245 192c-25 0-45 20-45 45c0 25 20 45 45 45c25 0 45-20 45-45c0-25-20-45-45-45"/>
<glyph unicode="&#57354;" d="M499 307l-119 0l77 77c5 5 5 14 0 19l-54 54c-5 5-13 5-18 0l-78-78l0 120c0 7-6 13-13 13l-76 0c-7 0-13-6-13-13l0-119l-77 77c-6 5-14 5-19 0l-54-54c-5-5-5-13 0-19l77-77l-119 0c-7 0-13-6-13-13l0-76c0-7 6-13 13-13l120 0l-78-78c-5-5-5-13 0-18l54-54c5-5 14-5 19 0l77 77l0-119c0-7 6-13 13-13l76 0c7 0 13 6 13 13l0 119l78-77c5-5 13-5 18 0l54 54c5 5 5 13 0 18l-77 78l119 0c7 0 13 6 13 13l0 76c0 7-6 13-13 13"/>
<glyph unicode="&#57355;" d="M229 363l66-68c0 0-173-173-200-200c-27-27-41-68-41-68l-54 54c0 0 14 41 41 68c8 8 62 61 111 109l2 0l0 27z m93 122l-96-95l102-102c0 0 7-52 7-89c109-27 177 96 177 96z"/>
<glyph unicode="&#57356;" d="M256 512c-141 0-256-115-256-256c0-141 115-256 256-256c141 0 256 115 256 256c0 141-115 256-256 256m0-68c37 0 71-11 100-29l-259-259c-18 29-29 63-29 100c0 104 84 188 188 188m0-376c-37 0-71 11-100 29l259 259c18-29 29-63 29-100c0-104-84-188-188-188"/>
<glyph unicode="&#57357;" d="M512 12c0-6-5-10-11-10l-490 0c-6 0-11 4-11 10l0 22c0 6 5 10 11 10l490 0c6 0 11-4 11-10l0-22z m-512 280c0 6 4 15 8 18l240 198c4 3 12 3 16-1l240-197c4-3 8-12 8-18c0-6-5-13-11-13l-53 0l0-171l32 0c6 0 11-4 11-10l0-21c0-6-5-11-11-11l-448 0c-6 0-11 5-11 11l0 21c0 6 5 10 11 10l32 0l0 171l-53 0c-6 0-11 7-11 13m149-13l-42 0l0-171l42 0l0 171z m86 0l-43 0l0-171l43 0z m85 0l-43 0l0-171l43 0z m85 0l-42 0l0-171l42 0z"/>
<glyph unicode="&#57358;" d="M0 512l43 0l0-448l-43 0z m235 0l-86 0l0-448l86 0l0 448z m64 0l-43 0l0-448l43 0z m85 0l-43 0l0-448l43 0z m128 0l-43 0l0-448l43 0z m-64 0l-43 0l0-448l43 0z m-384-448l43 0l0 448l-43 0z m-64-64l64 0l0 43l-64 0z m85 0l43 0l0 43l-43 0z m64 0l43 0l0 43l-43 0z m64 0l43 0l0 43l-43 0z m64 0l43 0l0 43l-43 0z m64 0l43 0l0 43l-43 0z m86 0l85 0l0 43l-85 0z"/>
<glyph unicode="&#57359;" d="M437 154c36 0 66-29 66-66c0-36-30-66-66-66c-37 0-66 30-66 66c0 37 29 66 66 66m64 302l-45 45c-7 7-17 11-27 11c-10 0-20-4-27-11l-128-128c-15-15-51-66-65-95c-15-30-31-61-46-76l-124-124l-10 11c-4 4-11 4-15 0l-11-11c-4-4-4-11 0-15l60-60c4-4 11-4 15 0l11 11c4 4 4 11 0 15l-11 10l124 124c15 15 46 31 76 46c29 14 80 50 95 65l128 128c7 7 11 17 11 27c0 10-4 20-11 27"/>
<glyph unicode="&#57360;" d="M199 341c35 41 36 73 38 110c1 19 2 40 8 61c-56-2-110-23-155-61z m-138-66c37 2 69 3 110 38l-110 109c-38-45-59-99-61-155c21 6 42 7 61 8m389 3c21 1 40 2 60 9c-5 49-25 96-59 135l-166-166l28-28c52 46 97 48 137 50m-222 35l28-28l166 166c-39 34-86 54-135 59c-7-20-8-39-9-60c-2-40-4-85-50-137m85-142c-35-41-36-73-38-110c-1-19-2-40-8-61c56 2 110 23 155 61z m138 66c-37-2-69-3-110-38l110-109c38 45 59 99 61 155c-21-6-42-7-61-8m-224 19l-28 28c-52-46-97-48-137-50c-21-1-40-2-60-9c5-48 25-96 59-135z m7-194c2 40 4 85 50 137l-28 28l-166-166c39-34 86-54 135-59c7 20 8 39 9 60"/>
<glyph unicode="&#57361;" d="M410 205l61 0l-102 246l-72 41c0 0 0 20-20 20l-41 0c-21 0-21-20-21-20l-72-41l-102-246l61 0l62 123l0-82l-45-238l147-8l0 195l62-175l62 23l-42 203l0 82z m-154 139l-44 122c4 3 24 10 44 10c20 0 40-7 44-10z m91-137c0 0 1-21-29-26c-31-5-36 14-36 14z"/>
<glyph unicode="&#57362;" d="M244 241c7-4 12-9 17-14l-131-227l-51 0l144 249c7-2 14-4 21-8m229-131c-4-7-9-14-13-21c2 38-17 75-52 96c-28 16-60 17-88 6c-2 36-21 69-54 88c-33 19-71 19-102 4c-6 29-23 56-50 72c-36 20-79 17-111-5c4 8 8 16 13 24c69 120 218 165 341 107l12 20c6 11 19 14 30 8c10-6 14-19 8-30l-12-20c112-78 147-229 78-349m-136 337c-29 13-60 19-92 19c-55 0-107-19-148-55l-6-5l8-2c46-15 65-26 87-70l4-6l4 6c64 103 140 105 141 105z m39-23l-7-5c1-1 37-68-19-175l-4-6l7 0c4 0 7 0 11 0c41 0 60-11 94-41l5-5l2 7c16 86-19 174-89 225"/>
<glyph unicode="&#57363;" d="M489 318c-13 16-32 25-57 25l-56 0l0 6c0 0 25 11 36 25c6 9 11 15 9 45c-3 29-49 55-79 40c-11 18-24 28-44 32c-5 1-9 2-13 2c-15 0-29-5-41-12c-15 17-39 31-74 31c-21 0-39-9-51-26c-5-8-9-17-11-26c-9 3-19 5-30 5c-37 0-66-32-66-72c0-22 21-38 21-68l0-282c0-24 18-43 42-43l257 0c23 0 44 19 44 43l0 45c42 7 89 31 110 107c16 58 21 98 3 123m-349-243c0-12-10-21-21-21c-12 0-22 9-22 21l0 114c28 0 43 23 43 42z m86 0c0-12-10-21-22-21c-11 0-21 9-21 21l0 192c0 12 1 31 8 42c5 9 35 13 35 13l0-247z m85 32l0-32c0-12-9-21-21-21c-12 0-21 9-21 21l0 252c20 3 42 6 42 6z m-114 251c-28-4-38-27-40-48c-1-13-5-29-16-29c-12 0-18 10-20 18c-2 6-2 0-2 0l0-61c0-10-7-22-22-22c-14 0-21 12-21 22l0 79c0 48-46 88-1 109c26 11 55-20 55-20c0 0-2 64 44 66c45 2 58-31 63-54c11 27 31 41 52 37c21-5 32-36 32-36c15 16 64 18 64-14c0-50-171-44-188-47m251-155c-14-49-51-64-72-71l0 168l61 0c15 0 21-5 23-8c5-6 4-30-12-89"/>
<glyph unicode="&#57364;" d="M199 39c18-1 37-2 57-2c20 0 39 1 57 2c-9-23-31-39-57-39c-26 0-48 16-57 39m276 108l-8 0l-53 64l-29 151l0 0c-9 52-49 94-101 105c0 1 0 1 0 1l8 24c4 11-3 20-15 20l-42 0c-12 0-19-9-15-20l8-24c0 0 0 0 0-1c-52-11-92-53-101-105l0 0l-29-151l-53-64l-8 0c-12 0-22-10-22-22c0-12 9-25 20-29c0 0 92-35 221-35c129 0 221 35 221 35c11 4 20 18 20 29c0 12-10 22-22 22"/>
<glyph unicode="&#57365;" d="M413 291c-13 0-25-3-35-7l-28 46l20 55c1 2 1 3 1 4l9 0c9 0 16 8 16 17c0 9-7 16-16 14l-67-11c-9-1-16-6-16-11c0-4 8-9 17-9l23 0l-21-49l-145 0l9 25c4 14-5 24-20 24l-44 0c-9 0-17-7-17-16c0-9 8-17 17-17l26 0l-25-67c-6 1-11 2-18 2c-54 0-99-45-99-100c0-55 45-99 99-99c55 0 100 44 100 99c0 37-21 70-51 87l6 17l115-115c3-3 7-5 12-5l33 0c8-47 49-83 99-83c54 0 99 44 99 99c0 55-45 100-99 100m-247-100c0-37-30-66-67-66c-36 0-66 29-66 66c0 37 30 67 66 67c3 0 5-1 7-1l-22-60c-3-9 1-18 10-21c2-1 4-1 6-1c6 0 13 4 15 10l22 61c17-12 29-32 29-55m183 77c-18-15-30-36-34-60l-11 0l31 83z m17-29l18-31l-36 0c4 12 10 22 18 31m-92-18l-85 86l117 0z m139-96c-32 0-58 21-65 50l65 0c9 0 16 7 16 17c0 2-3 10-3 11l-31 52c5 1 11 3 18 3c36 0 66-30 66-67c0-37-30-66-66-66"/>
<glyph unicode="&#57366;" d="M430 439l-101 0l0 36c0 21-16 37-36 37l-74 0c-20 0-36-16-36-37l0-36l-101 0c-5 0-9-4-9-9l0-19c0-5 4-9 9-9l348 0c5 0 9 4 9 9l0 19c0 5-4 9-9 9m-210 0l-1 0l0 36l74 0l0-36l-73 0z m188-55l-307 0c-8 0-10-3-10-9l0-369c0 0 2-6 10-6l307 0c7 0 13 3 13 9l0 367c0 6-6 8-13 8m-225-320c0-5-4-9-9-9l-19 0c-5 0-9 4-9 9l0 256c0 5 4 9 9 9l19 0c5 0 9-4 9-9z m91 0c0-5-4-9-9-9l-18 0c-5 0-9 4-9 9l0 256c0 5 4 9 9 9l18 0c5 0 9-4 9-9z m92 0c0-5-4-9-9-9l-19 0c-5 0-9 4-9 9l0 256c0 5 4 9 9 9l19 0c5 0 9-4 9-9z"/>
<glyph unicode="&#57367;" d="M469 256l-64 192l-21 0l0 64l-85-21l0-43l-22 0l0 21l-42 0l0-21l-22 0l0 43l-85 21l0-64l-21 0l-64-192l-43-149l0-64l192 0l0 64l-21 149l170 0l-21-149l0-64l192 0l0 64z m-256 43l-21 0l0 106l21 0z m107 0l-21 0l0 106l21 0z m0-278l192 0l0-21l-192 0z m-320 0l192 0l0-21l-192 0z"/>
<glyph unicode="&#57368;" d="M113 423c0-10 8-18 18-18c10 0 18 8 18 18c0 0 0 18-18 53c-18-35-18-53-18-53m72 89c17-36 17-54 17-54c0-10-8-17-17-17c-10 0-18 8-18 17c0 0 0 18 18 54m71-36c18-35 18-53 18-53c0-10-8-18-18-18c-10 0-18 8-18 18c0 0 0 18 18 53m71 36c18-36 18-54 18-54c0-10-8-17-18-17c-9 0-17 8-17 17c0 0 0 18 17 54m72-89c0-10-8-18-18-18c-10 0-18 8-18 18c0 0 0 18 18 53c18-35 18-53 18-53m-321-276c11-12 10-31 15-46c14 10 33 33 53 23c16-8 20-30 27-44c12 12 25 35 45 33c19-2 28-27 38-40c10 13 19 38 38 40c21 0 32-21 45-33c7 14 11 36 27 44c20 10 38-13 54-23c3 15 3 34 14 45c14 17 38 3 54-4l0 84l-1 0c-5 18-35 34-70 47l0 25c0 0-8 15-18 21l0 59c0 5-4 9-9 9l-18 0c-5 0-9-4-9-9l0-43c-6 2-11 4-18 5l0 74c0 5-4 9-9 9l-18 0c-4 0-8-4-8-9l0-68c-12 1-24 2-36 3l0 29c0 5-4 9-9 9l-18 0c-5 0-9-4-9-9l0-29c-12-1-24-2-36-3l0 68c0 5-4 9-9 9l-17 0c-5 0-9-4-9-9l0-74c-7-2-13-3-18-5l0 43c0 5-4 9-9 9l-18 0c-5 0-9-4-9-9l0-59c-10-6-18-21-18-21l0-22c-40-14-65-31-70-50l-1 0l0-84c2 1 42 19 54 5m38 153c0 0 4-2 6-2l18 0c5 0 9 4 9 9l0 10c5 1 12 3 18 5c1-4 5-6 9-6l17 0c5 0 9 4 9 8l0 4c11 1 23 2 36 3l0-42c0-5 4-9 9-9l18 0c5 0 9 4 9 9l0 42c13-1 25-2 36-3l0-21c0-5 4-9 8-9l18 0c5 0 9 4 9 9l0 15c7-2 13-4 18-5l0-10c0-5 4-9 9-9l18 0c2 0 4 1 6 2c14-15-44-30-52-32c-29-7-58-10-88-10c-30 0-59 3-88 10c-8 2-66 17-52 32c2-1 0 0 0 0m-23-56l9 0c16-14 38-20 57-26c32-8 65-12 97-12c32 0 65 4 97 12c19 6 41 12 57 26l9 0c4-2 45-19 42-28c-3-9-18-16-26-19c-55-26-120-31-179-31c-59 0-124 5-179 31c-8 3-23 9-26 19c-3 9 38 26 42 28m395-133l0-34c0-30-43-46-66-54c-53-18-110-23-166-23c-54 0-110 5-162 22c-24 8-70 24-70 55l0 34l1 1c12 3 22 10 33 13c5-16 3-41 20-51c20-13 41 13 56 23c9-15 12-40 30-47c22-8 38 20 51 33c11-14 20-41 41-41c21 0 30 27 41 41c13-12 26-37 47-34c21 4 25 32 34 48c3-2 13-10 13-10c13-11 35-26 49-7c10 12 10 30 14 45c11-3 34-14 34-14"/>
<glyph unicode="&#57369;" d="M189 289l312 0l0-64c-156 0-180-46-180-113c0-67 46-67 46-67c13 0 23-10 23-23l0-22l-268 0l0 22c0 13 10 23 23 23c66 0 44 111 44 111c0 0-63 2-124 30c-54 25-54 81-54 81l178 0z m-44 134l0 89l-23 0l-66-67l0-156l89 0l0 67l356 0l0 67z"/>
<glyph unicode="&#57370;" d="M401 512l-301 0l-55-39l0-50l-12 0c-6 0-11-5-11-11c0-6 5-11 11-11l12 0l0-23l-12 0c-6 0-11-5-11-11c0-6 5-11 11-11l12 0l0-22l-12 0c-6 0-11-5-11-11c0-6 5-11 11-11l12 0l0-23l-12 0c-6 0-11-5-11-11c0-6 5-11 11-11l12 0l0-22l-12 0c-6 0-11-5-11-11c0-6 5-11 11-11l12 0l0-23l-12 0c-6 0-11-5-11-11c0-6 5-11 11-11l12 0l0-22l-12 0c-6 0-11-5-11-11c0-6 5-11 11-11l12 0l0-23l-12 0c-6 0-11-5-11-11c0-6 5-11 11-11l12 0l0-22l-12 0c-6 0-11-5-11-11c0-6 5-11 11-11l12 0l0-45l333 0c37 0 67 30 67 67l0 334c0 36-30 66-67 66l-295 0l31 23l287 0c39 0 66-27 66-67l0-334l23 45l0 289c0 54-34 89-89 89m-223-67l0-423l-111 0l0 23l11 0c6 0 11 5 11 11c0 6-5 11-11 11l-11 0l0 22l11 0c6 0 11 5 11 11c0 6-5 11-11 11l-11 0l0 23l11 0c6 0 11 5 11 11c0 6-5 11-11 11l-11 0l0 22l11 0c6 0 11 5 11 11c0 6-5 11-11 11l-11 0l0 23l11 0c6 0 11 5 11 11c0 6-5 11-11 11l-11 0l0 22l11 0c6 0 11 5 11 11c0 6-5 11-11 11l-11 0l0 23l11 0c6 0 11 5 11 11c0 6-5 11-11 11l-11 0l0 22l11 0c6 0 11 5 11 11c0 6-5 11-11 11l-11 0l0 23l11 0c6 0 11 5 11 11c0 6-5 11-11 11l-11 0l0 22z"/>
<glyph unicode="&#57371;" d="M400 357l-182 155l0-179l-65 63l-37-37l102-100l0-4l-106-102l36-38l70 68l0-183l182 155l-104 102z m-129 41l51-44l-51-49z m51-240l-51-44l0 94z"/>
<glyph unicode="&#57372;" d="M428 392l-48 21c-1 1-34 68-34 68c-3 5-9 10-15 10l-32 0l0 10c0 6-5 11-11 11l-64 0c-6 0-11-5-11-11l0-10l-32 0c-6 0-12-5-15-10c0 0-34-67-34-68l-48-21c-11-4-20-18-20-29l0-80l192 80l192-80l0 80c0 11-9 25-20 29m-343-77l0 48c0 3 4 9 7 10l110 47c2 1 28 6 33 6l0-42c0-2 0-4 1-7z m342 0l-151 62c1 3 1 5 1 7l0 42c4 0 32-6 33-6l110-47c3-1 7-7 7-10z m58-84c11-4 15-16 9-26l-120-187c-6-10-11-18-33-18c-21 0-85 85-85 85c0 0-64-85-85-85c-22 0-27 8-33 18l-120 187c-6 10-2 22 9 26l209 87c11 5 29 5 40 0l209-87"/>
<glyph unicode="&#57373;" d="M334 267c0 0 95 27 95 110c0 83-75 135-139 135l-234 0l0-31c42-10 42-16 42-48l0-353c0-25-21-39-42-42l0-38l233 0c66 0 167 39 167 131c0 106-122 136-122 136m-129 181l63 0c43 0 56-38 56-75c0-37-13-74-56-74l-63 0z m64-384l-64 0l0 171l63 0c54 0 79-43 79-93c0-50-31-78-78-78"/>
<glyph unicode="&#57374;" d="M512 414l-51 15l25 47l-47-26l-15 51l-15-51l-47 26l26-47l-51-15l34-10c-11-5-25-9-38-5c-12 3-22 13-29 29c-15 37-50 57-84 50c-32-7-53-36-53-75l-49 0l0-48c-59-24-118-90-118-167c0-98 79-177 177-177c98 0 177 79 177 177c0 77-39 143-118 167l0 48l-49 0c0 39 19 52 37 56c21 4 48-6 62-39c10-22 24-35 42-40c5-2 11-2 16-2c14 0 28 4 38 9l-20-35l47 25l15-51l15 51l47-25l-25 46z"/>
<glyph unicode="&#57375;" d="M405 512l-309 0l-75-80l0-432l320 0c36 0 64 29 64 64l0 299c0 35-28 64-64 64l-261 0l42 42l262 0c43 0 64-21 64-64l0-341l43 43l0 320c0 42-43 85-86 85"/>
<glyph unicode="&#57376;" d="M491 431l0 28c0 0-49 28-123 28c-73 0-112-26-112-26c0 0-39 27-112 27c-74 0-123-29-123-29l0-28l-21-11l0-335c0 0 97 33 149 33c53 0 107-19 107-19c0 0 54 19 107 19c6 0 13 0 21-1l0-93l33 44l31-44l0 80c43-9 64-19 64-19l0 335z m-256-261c-22 6-55 14-85 14c-48 0-65-8-86-14l0 264c0 0 24 15 86 15c36 0 63-9 85-24z m213 0c-21 6-38 15-86 15c-30 0-63-9-85-15l0 255c22 15 49 24 85 24c62 0 86-15 86-15z"/>
<glyph unicode="&#57377;" d="M408 512l-304 0c-6 0-10-5-10-11l0-495c0-6 6-8 10-4l153 136l150-133c4-4 11-4 11 6l0 490c0 6-4 11-10 11"/>
<glyph unicode="&#57378;" d="M256 512c-141 0-256-115-256-256c0-141 115-256 256-256c141 0 256 115 256 256c0 141-115 256-256 256m34-217c-22 0-41 18-41 41c0 22 19 41 41 41c23 0 41-19 41-41c0-23-18-41-41-41m27 109c0 22 19 41 41 41c23 0 41-18 41-41c0-23-18-41-41-41c-22 0-41 18-41 41m110-155c-23 0-41 19-41 41c0 23 18 41 41 41c22 0 41-18 41-41c0-22-19-41-41-41"/>
<glyph unicode="&#57379;" d="M469 395l-64 0l0 21l-42 0c0 35-29 64-64 64l-86 0c-35 0-64-29-64-64l-42 0l0-21l-64 0c-24 0-43-20-43-43l0-96l75-53l138 0l0 31l86 0l0-31l138 0l75 53l0 96c0 23-19 43-43 43m-256 42l86 0c11 0 21-9 21-21l0-21l-128 0l0 21c0 12 10 21 21 21m235-256l64 43l0-149c0-24-19-43-43-43l-426 0c-24 0-43 19-43 43l0 149l65-43l148 0l0-21l86 0l0 21z"/>
<glyph unicode="&#57380;" d="M256 384c-71 0-128-57-128-128c0-71 57-128 128-128c71 0 128 57 128 128c0 71-57 128-128 128m0-212c-46 0-84 38-84 84c0 46 38 84 84 84c46 0 84-38 84-84c0-46-38-84-84-84m-175 63l-80 0c0 7-1 14-1 21c0 7 0 14 1 21l80 0c-1-7-1-14-1-21c0-7 0-14 1-21m67-118l-57-56c-11 9-21 19-30 30l56 56c9-11 19-21 31-30m-31 248l-56 56c9 11 19 21 30 30l56-56c-11-9-21-19-30-30m314-88l80 0c1-7 1-14 1-21c0-7 0-14-1-21l-80 0c1 7 1 14 1 21c0 7 0 14-1 21m-154-196l0-80c-7-1-14-1-21-1c-7 0-14 0-21 1l0 80c7-1 14-1 21-1c7 0 14 0 21 1m174 340l-56-56c-9 11-19 21-30 30l56 56c11-9 21-19 30-30m-56-274l56-56c-9-11-19-21-30-30l-57 56c12 9 22 19 31 30m-118 364l0-80c-7 1-14 1-21 1c-7 0-14 0-21-1l0 80c7 0 14 1 21 1c7 0 14-1 21-1"/>
<glyph unicode="&#57381;" d="M74 256c0-9 1-17 2-26l-75 0c-1 9-1 17-1 26c0 9 0 17 1 26l75 0c-1-9-2-17-2-26m208-255l0 75c-9-1-17-2-26-2c-9 0-17 1-26 2l0-75c9-1 17-1 26-1c9 0 17 0 26 1m119 364l53 53c-11 13-23 25-36 36l-53-52c14-11 26-23 36-37m110-83l-75 0c1-9 2-17 2-26c0-9-1-17-2-26l75 0c1 9 1 17 1 26c0 9 0 17-1 26m-255 156c9 0 17-1 26-2l0 75c-9 1-17 1-26 1c-9 0-17 0-26-1l0-75c9 1 17 2 26 2m145-291c-10-14-22-26-36-36l53-53c13 11 25 23 36 36z m-290 0l-53-53c11-13 23-25 36-36l53 53c-14 10-26 22-36 36m0 218c10 14 22 26 36 37l-53 52c-13-11-25-23-36-36z m145-211c56 0 102 46 102 102c0 56-46 102-102 102c-56 0-102-46-102-102c0-56 46-102 102-102m0 152c28 0 50-22 50-50c0-28-22-50-50-50c-28 0-50 22-50 50c0 28 22 50 50 50"/>
<glyph unicode="&#57382;" d="M509 467c0 0-180-234-198-256c-18-22-35-36-40-40c-5-4-59-35-59-35c-4-2-7 0-8 3c-2 9-6 17-13 24c-7 7-16 11-25 14c-5 1-6 4-3 7c0 0 29 54 33 59c4 6 24 25 42 41c18 17 248 194 252 197c6 5 14 6 18 2c4-4 6-10 1-16m-382-311c-16 0-43-8-57-44c-9-25-21-57-66-73c-3-1-4-3-4-5c0-3 2-5 5-5c19-2 36-2 52-2c45 0 78 7 100 22c8 6 17 15 17 15c17 23 15 56-5 77c-11 11-26 15-42 15"/>
<glyph unicode="&#57383;" d="M496 44c0-12-10-22-22-22l-53 0l-43 43l-24 0c-19-37-49-65-98-65c-48 0-79 28-98 65l-24 0l-43-43l-53 0c-12 0-22 10-22 22c0 12 10 21 22 21l35 0l43 44l25 0c-7 23-11 45-13 65l-57 0l-48 49c-8 9-8 22 1 31c8 8 22 8 30 0l35-36l36 0c0 9 0 14 0 14c0 16 3 32 7 46c-1 1-3 1-4 2l-46 45l0 76l-19 19c-8 9-8 23 1 31c9 9 22 8 31 0l30-32l0-76l26-24c24 34 62 54 105 54c42 0 80-20 104-53l27 24l0 75l28 31c9 9 22 10 31 2c9-8 10-22 2-31l-18-19l0-78l-50-44c0 0 0-1 0-1c4-14 7-30 7-47c0 0 0-5 0-14l34 0l36 36c9 8 22 8 31 0c8-9 8-23 0-31l-49-49l-55 0c-2-20-6-42-13-65l25 0l43-44l35 0c12 0 22-9 22-21m-175 343l0 5c0 20-9 37-23 49l21 22c1 2 2 5 2 7l0 31c0 6-5 11-11 11c-6 0-10-5-10-11l0-26l-20-22c-8 3-16 4-24 4c-8 0-16-1-24-4l-20 22l0 26c0 6-4 11-10 11c-6 0-11-5-11-11l0-31c0-2 1-5 2-7l21-22c-14-12-23-29-23-49l0-5c20 9 42 15 65 15c23 0 45-6 65-15"/>
<glyph unicode="&#57384;" d="M453 453l-394 0l39 39l99 0l20 20l78 0l20-20l99 0z m39-433l0-20l-197 0l0 59l-78 0l0-59l-197 0l0 20l19 0l0 19l20 0l0 394l394 0l0-394l20 0l0-19l19 0z m-295 118l-79 0l0-40l79 0z m0 79l-79 0l0-40l79 0z m0 78l-79 0l0-39l79 0z m0 79l-79 0l0-39l79 0z m98-236l-78 0l0-40l78 0z m0 79l-78 0l0-40l78 0z m0 78l-78 0l0-39l78 0z m0 79l-78 0l0-39l78 0z m99-236l-79 0l0-40l79 0z m0 79l-79 0l0-40l79 0z m0 78l-79 0l0-39l79 0z m0 79l-79 0l0-39l79 0z"/>
<glyph unicode="&#57385;" d="M39 187l-19 0l0 138l19 0z m20 295l-20 0l0-137l20 0z m-59-452l20 0l0 137l-20 0z m236 137l20-19l0-99l-20-19l-197 0l0 137l197 0z m98 197l-19 0l0 99l59 0l138-50l-138-49z m-59-19l-196 0l0 137l196 0l20-19l0-99z m59-197l139-49l-139-50l-59 0l0 99z m20 157l138-49l-138-49l-59 0l0 98z m-79-98l-19-20l-197 0l0 138l197 0l19-20l0-98z"/>
<glyph unicode="&#57386;" d="M492 461c11 0 20-9 20-21l0-348c0-11-9-20-20-20c-12 0-21 9-21 20l0 348c0 12 9 21 21 21m-492-185l0-20c0-23 18-41 41-41l0 102c-23 0-41-18-41-41m82 62c-11 0-21-9-21-21l0-102c0-6 3-11 7-15l24-129c2-11 13-20 24-20l34 0c11 0 19 9 18 20l-20 124l16 0l287-103l0 348l-287-102z"/>
<glyph unicode="&#57387;" d="M481 185c11-9 17-13 31-13l0-64c-37 0-57 16-71 27c-11 9-17 14-31 14c-15 0-20-5-32-14c-14-11-34-27-71-27c-37 0-57 16-71 27c-11 9-17 14-31 14c-15 0-20-5-32-14c-14-11-34-27-71-27c-36 0-56 16-71 27c-11 9-17 14-31 14l0 64c37 0 57-16 71-28c11-9 17-13 31-13c15 0 20 4 31 13c15 12 35 28 72 28c36 0 56-16 71-28c11-9 17-13 31-13c14 0 20 4 31 13c15 12 35 28 72 28c36 0 56-16 71-28m-71-79c-37 0-57-16-72-27c-11-9-17-14-31-14c-14 0-20 5-31 14c-15 11-35 27-71 27c-37 0-57-16-72-27c-11-9-16-14-31-14c-14 0-20 5-31 14c-14 11-34 27-71 27l0-64c14 0 20-4 31-13c15-12 35-28 71-28c37 0 57 16 71 28c12 9 17 13 32 13c14 0 20-4 31-13c14-12 34-28 71-28c37 0 57 16 71 28c11 9 17 13 32 13c14 0 20-4 31-13c14-12 34-28 71-28l0 64c-14 0-20 5-31 14c-15 11-35 27-71 27m-114 104c3-2 6-6 12-6c6 0 7 4 10 6c6 5 14 11 23 17c-1 48-38 87-85 92l0 161c0 6-5 11-11 11l0 0c-6 0-10-5-10-11l0-161c-45-5-80-40-85-85c15 6 32 11 55 11c48 0 75-22 91-35m-19 281l0-107c0 0 136 116 140 120c4 4 2 7-3 7c-5-1-137-20-137-20"/>
<glyph unicode="&#57388;" d="M434 421l-11 21c-4 8-14 14-23 14l-288 0c-9 0-19-6-23-14l-11-22c-30-11-78-30-78-44l0-64c0-9 8-16 17-16l16 0c9 0 15 7 15 16l0 64c0 4 7 9 16 14l0-326c0-4 4-8 8-8l32 0c4 0 8 4 8 8l0 24l288 0l0-24c0-4 4-8 8-8l32 0c4 0 8 4 8 8l0 326c9-5 16-10 16-14l0-64c0-9 7-16 16-16l16 0c9 0 16 7 16 16l0 64c0 14-48 34-78 45m-338-37c0 4 4 8 8 8l304 0c4 0 8-4 8-8l0-155c0-5-3-10-8-11c0 0-50-20-152-20c-102 0-152 20-152 20c-5 1-8 6-8 11z m48-248l-48 0l-16 14l0 34l64-16z m176-32l-112 0l0 32l112 0z m48 32l0 32l64 16l0-34l-16-14z"/>
<glyph unicode="&#57389;" d="M491 162l-470-77l0 86l470 76z m0-86l-470-76l0 85l470 77l0-86z m0 262l-470-79l0-88l470 76l0 91z m-278 174c171 0 278 0 278-131l-470-79z"/>
<glyph unicode="&#57390;" d="M416 512l-320 0c-35 0-64-29-64-64l0-384c0-35 29-64 64-64l320 0c35 0 64 29 64 64l0 384c0 35-29 64-64 64m-256-444c0-2-2-4-4-4l-56 0c-2 0-4 2-4 4l0 34c0 3 2 5 4 5l56 0c2 0 4-2 4-5z m0 64c0-2-2-4-4-4l-56 0c-2 0-4 2-4 4l0 34c0 3 2 5 4 5l56 0c2 0 4-2 4-5z m0 64c0-2-2-4-4-4l-56 0c-2 0-4 2-4 4l0 34c0 3 2 5 4 5l56 0c2 0 4-2 4-5z m0 64c0-2-2-4-4-4l-56 0c-2 0-4 2-4 4l0 34c0 3 2 5 4 5l56 0c2 0 4-2 4-5z m85-192c0-2-2-4-4-4l-55 0c-3 0-5 2-5 4l0 34c0 3 2 5 5 5l55 0c2 0 4-2 4-5z m0 64c0-2-2-4-4-4l-55 0c-3 0-5 2-5 4l0 34c0 3 2 5 5 5l55 0c2 0 4-2 4-5z m0 64c0-2-2-4-4-4l-55 0c-3 0-5 2-5 4l0 34c0 3 2 5 5 5l55 0c2 0 4-2 4-5z m0 64c0-2-2-4-4-4l-55 0c-3 0-5 2-5 4l0 34c0 3 2 5 5 5l55 0c2 0 4-2 4-5z m86-192c0-2-2-4-5-4l-55 0c-2 0-4 2-4 4l0 34c0 3 2 5 4 5l55 0c3 0 5-2 5-5z m0 64c0-2-2-4-5-4l-55 0c-2 0-4 2-4 4l0 34c0 3 2 5 4 5l55 0c3 0 5-2 5-5z m0 64c0-2-2-4-5-4l-55 0c-2 0-4 2-4 4l0 34c0 3 2 5 4 5l55 0c3 0 5-2 5-5z m0 64c0-2-2-4-5-4l-55 0c-2 0-4 2-4 4l0 34c0 3 2 5 4 5l55 0c3 0 5-2 5-5z m85-192c0-2-2-4-4-4l-56 0c-2 0-4 2-4 4l0 162c0 3 2 5 4 5l56 0c2 0 4-2 4-5l0-162z m0 192c0-2-2-4-4-4l-56 0c-2 0-4 2-4 4l0 34c0 3 2 5 4 5l56 0c2 0 4-2 4-5l0-34z m0 103c0-12-10-22-21-22l-278 0c-11 0-21 10-21 22l0 64c0 11 10 21 21 21l278 0c11 0 21-10 21-21z"/>
<glyph unicode="&#57391;" d="M11 363l0-342c0-11 9-21 21-21l448 0c12 0 21 10 21 21l0 342z m106-320l-64 0l0 64l64 0z m0 85l-64 0l0 64l64 0z m0 85l-64 0l0 64l64 0z m86-170l-64 0l0 64l64 0z m0 85l-64 0l0 64l64 0z m0 85l-64 0l0 64l64 0z m85-170l-64 0l0 64l64 0z m0 85l-64 0l0 64l64 0z m0 85l-64 0l0 64l64 0z m85-170l-64 0l0 64l64 0z m0 85l-64 0l0 64l64 0z m0 85l-64 0l0 64l64 0z m86-170l-64 0l0 64l64 0z m0 85l-64 0l0 64l64 0z m0 85l-64 0l0 64l64 0z m42 235l0-64l-490 0l0 64c0 12 9 21 21 21l43 0l0 22c0 11 9 21 21 21l21 0c12 0 22-10 22-21l0-22l234 0l0 22c0 11 10 21 22 21l21 0c12 0 21-10 21-21l0-22l43 0c12 0 21-9 21-21"/>
<glyph unicode="&#57392;" d="M256 271c30 0 54-25 54-54c0-30-24-55-54-55c-30 0-54 25-54 55c0 29 24 54 54 54m189 123c37 0 67-30 67-67l0-201c0-37-30-67-67-67l-378 0c-37 0-67 30-67 67l0 201c0 37 30 67 67 67l67 0c0 1 0 1 1 2l6 15c9 23 37 42 61 42l108 0c24 0 52-19 61-42l6-15c1-1 1-1 1-2l67 0m-189-281c57 0 103 47 103 104c0 57-46 103-103 103c-57 0-103-46-103-103c0-57 46-104 103-104m197 222l-39 0l0-20l39 0z"/>
<glyph unicode="&#57393;" d="M373 512c-64 0-117-52-117-117c0-25 8-49 21-68l0-28l-21 0c0 11-10 21-21 21l-192 0c-12 0-22-10-22-21l0-150c0-11 10-21 22-21l192 0c11 0 21 10 21 21l21 0l0-89c0-33 28-60 61-60l71 0c33 0 60 27 60 60l0 267c14 19 22 43 22 68c0 65-53 117-118 117m-53-405l21 0l0-22l-21 0z m43-64l-22 0l0 21l22 0z m42 0l-21 0l0 21l21 0z m-42 64l21 0l0-22l-21 0z m64-22l-22 0l0 22l22 0z m-54 235c-41 0-74 33-74 75c0 41 33 74 74 74c42 0 75-33 75-74c0-42-33-75-75-75m54 75c0-30-24-54-54-54c-27 0-50 22-53 49c7-4 14-6 21-6c24 0 43 19 43 43c0 7-2 14-6 21c27-3 49-26 49-53"/>
<glyph unicode="&#57394;" d="M258 512c71-47 136-197 24-204c40 21 4 78-21 88c-6-32-55-49-16-88c-138 44 27 143 13 204m193-430l-390 0c-6 0-10-5-10-10l0-21c0-5 4-10 10-10l31 0l41-41l246 0l41 41l31 0c6 0 10 5 10 10l0 21c0 5-4 10-10 10m-133 205l-103 0c-23 0-41-18-41-41l0-46c-12-6-21-21-21-39l0-68l206 0l0 153c0 23-19 41-41 41"/>
<glyph unicode="&#57395;" d="M502 335l-37 0l-33 108c-11 22-19 30-45 30l-262 0c-26 0-34-8-45-30l-33-108l-37 0c-6 0-10-5-10-10l0-20c0-5 4-10 10-10l18 0l-8-19l0-227c0-5 4-10 10-10l39 0c5 0 10 5 10 10l0 30l354 0l0-30c0-5 5-10 10-10l39 0c6 0 10 5 10 10l0 227l-8 19l18 0c6 0 10 5 10 10l0 20c0 5-4 10-10 10m-391 90c2 5 6 8 12 8l266 0c6 0 10-3 12-8c4-7 24-90 24-90l-338 0c0 0 20 83 24 90m7-228l-59 0l-20 20l0 41l79-22l0-39z m217-79l-158 0l0 40l158 0z m138 99l-20-20l-59 0l0 39l79 22l0-41z"/>
<glyph unicode="&#57396;" d="M308 0l-68 258l-55-163l-183 0l143 41l99 376l75-347l55 170l39-199l97-41l-116 0l-18 53z"/>
<glyph unicode="&#57397;" d="M384 20l-374 0l0 59l374 0z m0 0l118 118l0 59l-118-118z m-276 19l-98 0l0-39l98 0z m138 0l-79 0l0-39l79 0z m138 0l-79 0l0-39l79 0z m20 20l-20-20l0-39l20 20z m19-20l40 40l0 39l-40-39z m59 99l0-40l20 20l0 40z m-286 284c9 9 30 31 30 31l-137 0l-31-31c-8-8-9-13-9-22l0-26l138 0l0 26c0 9 0 14 9 22m30-22l0-26l138 0l40 40l0 28c0 8-4 11-11 11l-127 0c0 0-21-21-31-31c-9-9-9-13-9-22m-39-46l-138 0l0-78l138 0l0 78z m217-39l0 79l-40-40l-138 0l0-78l138 0z m-118 197l-121 0c-14 0-16 1-24-7c-8-7-33-32-33-32l138 0z m-60-335l138 0l40 40l0 78l-40-39l-138 0z m-39 79l-138 0l0-79l138 0l0 79z m236 79l40 39l0 79l-40-39z m-98 177l-39-39l118 0c14 0 19-7 19-20l0-20l40 40l0 19c0 14-5 20-20 20l-118 0z m98-276l40 40l0 78l-40-39z m0-78l40 39l0 59l-40-39z m-59 0l-138 0l0-60l138 0l40 40l0 59z m-315-60l138 0l0 60l-138 0z"/>
<glyph unicode="&#57398;" d="M505 377l-27 0c0 0-12 26-16 35c-8 15-12 22-33 22l-125 0c-19 0-26-7-33-22l-7-13c11-3 23-11 23-11c0 0 5 8 6 12c2 3 5 5 9 5l128 0c5 0 7-2 9-5c2-6 10-37 10-37l-147 0l22-57l13 0c14 0 19-4 19-18l0-39l56 0l0-29l-71 0l0-14l114 0l0-21c0-4 3-7 7-7l29 0c4 0 7 3 7 7l0 149l-6 14l13 0c4 0 7 4 7 8l0 14c0 4-3 7-7 7m-21-85l-15-15l-28 0l0 29l43 15z m-150 0l-27 0l-23 63c-8 16-14 22-33 22l-161 0c-18 0-24-6-33-22l-23-63l-27 0c-4 0-7-4-7-8l0-14c0-4 3-7 7-7l13 0l-6-14l0-164c0-4 3-7 7-7l29 0c4 0 7 3 7 7l0 22l227 0l0-22c0-4 4-7 8-7l28 0c4 0 7 3 7 7l0 164l-6 14l13 0c4 0 7 3 7 7l0 14c0 4-3 8-7 8m-254 51c2 3 4 5 9 5l164 0c4 0 7-2 8-5c3-6 17-66 17-66l-215 0c0 0 15 60 17 66m5-151l-42 0l-15 14l0 30l57-16z m143-57l-114 0l0 29l114 0z m85 71l-14-14l-43 0l0 28l57 16z"/>
<glyph unicode="&#57399;" d="M492 477l-50 0c-10 0-18-6-20-16l-15-64l-82 0l-33-41l19 0l0-20l-20 0l0 19l-32-39l12 0l0-20l-20 0l0 11l-10-13c-6-8-17-14-29-14c-12 0-23 5-31 15l-1 1l-9 0l0 11l-25 29l-15 0l0 19l-35 42l-76 0c-6 0-12-3-16-8c-3-5-5-11-4-17l41-181c2-9 10-15 19-15l295 0l-20-81l-245 0c-11 0-20-9-20-20c0-11 9-20 20-20l22 0c-1-3-2-6-2-10c0-16 14-30 31-30c16 0 30 14 30 30c0 4-1 7-2 10l104 0c-1-3-2-6-2-10c0-16 14-30 30-30c17 0 30 14 30 30c0 4 0 7-2 10l22 0c10 0 18 10 20 20l0 0l87 362l34 0c11 0 20 9 20 20c0 11-9 20-20 20m-422-221l-3 0l-4 20l7 0l0-20z m0 40l-12 0l-4 20l16 0z m0 40l-20 0l-5 20l25 0z m40-120l-20 0l0 20l20 0z m0 40l-20 0l0 20l20 0z m0 40l-20 0l0 20l20 0z m0 40l-20 0l0 20l20 0z m41-120l-20 0l0 20l20 0z m0 40l-20 0l0 20l20 0z m0 40l-20 0l0 20l20 0z m40-80l-20 0l0 20l20 0z m0 40l-20 0l0 20l20 0z m40-40l-20 0l0 20l20 0z m0 40l-20 0l0 20l20 0z m40-40l-20 0l0 20l20 0z m0 40l-20 0l0 20l20 0z m40-40l-20 0l0 20l20 0z m0 40l-20 0l0 20l20 0z m0 40l-20 0l0 20l20 0z m40-80l-20 0l0 20l20 0z m0 40l-20 0l0 20l20 0z m0 40l-20 0l0 20l20 0z m0 40l-20 0l0 20l20 0z m23-80l-3 0l0 20l7 0z m12 53l-3-13l-12 0l0 20l17 0z m6 27l-21 0l0 20l26 0z m-280 94c-2 3-1 7 2 7l57 0l0 50c0 5 4 10 10 10l60 0c5 0 10-5 10-10l0-50l57 0c3 0 4-4 2-6l-95-116c-1-1-2-1-3-1c-2 0-3 1-4 2z"/>
<glyph unicode="&#57400;" d="M492 477l-50 0c-10 0-18-7-20-16l-15-65l-76 0c7-9 8-18 3-28c-5-10-23-12-23-12l0-20l-20 0l0 20l-20 0l0-60l-140 0l0 20l20 0l0 20l-20 0l0 20l-17 0c-11 0-21 2-26 12c-5 10-4 20 2 28l-70 0c-6 0-12-2-16-7c-3-5-5-11-4-17l41-181c2-9 10-15 19-15l295 0l-19-81l-246 0c-11 0-20-9-20-20c0-11 9-20 20-20l22 0c-1-3-2-6-2-10c0-17 14-30 31-30c16 0 30 13 30 30c0 4-1 7-2 10l104 0c-1-3-2-6-2-10c0-17 14-30 30-30c17 0 30 13 30 30c0 4 0 7-2 10l22 0c10 0 18 10 20 20l0 0l87 362l34 0c11 0 20 9 20 20c0 11-9 20-20 20m-422-221l-3 0l-4 20l7 0l0-20z m0 40l-12 0l-4 20l16 0z m0 40l-20 0l-5 20l25 0z m40-120l-20 0l0 20l20 0z m0 40l-20 0l0 20l20 0z m0 40l-20 0l0 20l20 0z m0 40l-20 0l0 20l20 0z m41-120l-20 0l0 20l20 0z m0 40l-20 0l0 20l20 0z m40-40l-20 0l0 20l20 0z m0 40l-20 0l0 20l20 0z m40-40l-20 0l0 20l20 0z m0 40l-20 0l0 20l20 0z m40-40l-20 0l0 20l20 0z m0 40l-20 0l0 20l20 0z m40-40l-20 0l0 20l20 0z m0 40l-20 0l0 20l20 0z m0 40l-20 0l0 20l20 0z m40-80l-20 0l0 20l20 0z m0 40l-20 0l0 20l20 0z m0 40l-20 0l0 20l20 0z m0 40l-20 0l0 20l20 0z m23-80l-3 0l0 20l7 0z m12 53l-3-13l-12 0l0 20l17 0z m6 27l-21 0l0 20l26 0z m-278 40c-3 0-4 3-2 5l95 114c1 1 2 2 3 2c2 0 3 0 4-2l96-113c2-3 1-6-2-6l-57 0l0-50c0-5-4-10-10-10l-60 0c-6 0-10 5-10 10l0 50z"/>
<glyph unicode="&#57401;" d="M440 451l-102 0l0 41c0 11 9 20 20 20l62 0c11 0 20-9 20-20l0-41z m-184-185l-246 0l103-112l0-134l-62 0l0-20l164 0l0 20l-61 0l0 134z m246 0l0-246c0-11-9-20-21-20l-184 0c-11 0-21 9-21 20l0 246c0 41 62 62 62 103l0 61l102 0l0-61c0-41 62-62 62-103"/>
<glyph unicode="&#57402;" d="M369 183l0-183l-113 103l-113-103l0 183l23 1l32-59l58 34l58-34l32 59z m59 111l-47-26l1-54l-54 1l-26-47l-46 27l-46-27l-26 47l-54-1l1 54l-47 26l28 46l-28 46l47 26l-1 54l54-1l26 47l46-28l46 28l26-47l54 1l-1-54l47-26l-28-46z m-162 164l-13-10l-32 21l-19-35l-41 1l1-40l-35-19l21-33l-10-13l35 26l-14 20l23 12l-1 26l26 0l12 23l21-14z"/>
<glyph unicode="&#57403;" d="M474 66l0 275c0 6-4 10-9 10l-76 0c-5 0-10-4-10-10l0-275l-19 0l0 408c0 5-4 10-9 10l-76 0c-5 0-10-5-10-10l0-408l-19 0l0 199c0 6-4 10-9 10l-76 0c-5 0-9-4-9-10l0-199l-19 0l0 86c0 5-5 9-10 9l-76 0c-5 0-9-4-9-9l0-86l-38 0l0-38l512 0l0 38l-38 0z"/>
<glyph unicode="&#57404;" d="M512 281c0-98-115-178-256-178c-37 0-72 5-104 15l-104-64c-5-3-8 0-6 5l24 102c-41 32-66 74-66 120c0 98 115 178 256 178c141 0 256-80 256-178"/>
<glyph unicode="&#57405;" d="M418 226l0-86c0-51-42-93-93-93l-232 0c-51 0-93 42-93 93l0 232c0 51 42 93 93 93l232 0c11 0 22-3 32-6l-40-41l-247 0c-13 0-24-10-24-23l0-278c0-13 11-23 24-23l278 0c13 0 23 10 23 23l0 62z m36 235c-5 5-12 5-17 0l-184-184c-4-4-12-4-16 0l-66 66c-5 5-12 5-17 0l-54-54c-5-4-5-12 0-16l137-137c4-5 12-5 16 0l256 255c4 5 4 12 0 17z"/>
<glyph unicode="&#57406;" d="M83 256l256 256l90-90l-166-166l166-166l-90-90z"/>
<glyph unicode="&#57407;" d="M429 256l-256 256l-90-90l166-166l-166-166l90-90z"/>
<glyph unicode="&#57408;" d="M1 256c0-141 114-255 255-255c141 0 255 114 255 255c0 141-114 255-255 255c-141 0-255-114-255-255m288 124c5 0 10-5 10-10l0-115l73 0c6 0 8-4 4-8l-112-131c-4-4-10-4-14 0l-112 131c-4 4-2 8 4 8l74 0l0 115c0 5 4 10 10 10l63 0z"/>
<glyph unicode="&#57409;" d="M256 511c-141 0-255-114-255-255c0-141 114-255 255-255c141 0 255 114 255 255c0 141-114 255-255 255m127-288c0-5-5-10-11-10l-115 0l0-71c0-6-3-8-8-4l-133 111c-5 4-5 10 0 14l133 111c5 4 8 2 8-4l0-73l115 0c6 0 11-5 11-11z"/>
<glyph unicode="&#57410;" d="M1 256c0-141 114-255 255-255c141 0 255 114 255 255c0 141-114 255-255 255c-141 0-255-114-255-255m131 30c0 6 5 10 10 10l115 0l0 74c0 6 4 8 8 4l134-111c4-4 4-10 0-14l-134-111c-4-4-8-2-8 4l0 71l-115 0c-5 0-10 5-10 10l0 63z"/>
<glyph unicode="&#57411;" d="M256 1c141 0 255 114 255 255c0 141-114 255-255 255c-141 0-255-114-255-255c0-141 114-255 255-255m-30 128c-6 0-10 5-10 11l0 115l-74 0c-6 0-8 3-4 8l112 130c4 4 10 4 14 0l112-130c4-5 2-8-4-8l-73 0l0-115c0-6-5-11-10-11l-63 0z"/>
<glyph unicode="&#57412;" d="M256 512c-141 0-256-115-256-256c0-141 115-256 256-256c141 0 256 115 256 256c0 141-115 256-256 256m42-413c0-5-5-10-11-10l-62 0c-6 0-11 5-11 10l0 63c0 6 5 10 11 10l62 0c6 0 11-4 11-10z m0 230c0-6-1-15-2-21l-19-99c-1-6-7-16-13-16l-16 0c-6 0-11 10-13 16l-19 97c-1 5-2 17-2 23l0 84c0 5 5 10 11 10l62 0c6 0 11-5 11-10l0-84z"/>
<glyph unicode="&#57413;" d="M256 512c-141 0-256-115-256-256c0-141 115-256 256-256c141 0 256 115 256 256c0 141-115 256-256 256m-21-120c0 6 5 10 11 10l41 0c6 0 11-4 11-10l0-42c0-6-5-10-11-10l-41 0c-6 0-11 4-11 10z m105-272c0-6-5-10-11-10l-125 0c-6 0-11 4-11 10l0 42c0 6 5 10 11 10l31 0l0 84l-31 0c-6 0-11 5-11 10l0 42c0 6 5 11 11 11l83 0c6 0 11-5 11-11l0-136l31 0c6 0 11-4 11-10z"/>
<glyph unicode="&#57414;" d="M256 512c-141 0-256-115-256-256c0-141 115-256 256-256c141 0 256 115 256 256c0 141-115 256-256 256m125-287c0-6-4-11-10-11l-230 0c-6 0-10 5-10 11l0 62c0 6 4 11 10 11l230 0c6 0 10-5 10-11l0-62z"/>
<glyph unicode="&#57415;" d="M437 437c-100 100-262 100-362 0c-100-100-100-262 0-362c100-100 262-100 362 0c100 100 100 262 0 362m-33-118l-178-178c-3-3-7-3-10 0l-108 108c-3 3-3 7 0 10l45 44c2 3 7 3 9 0l54-53c3-3 7-3 10 0l123 123c3 3 7 3 10 0l44-44c3-3 3-7 1-10"/>
<glyph unicode="&#57416;" d="M256 512c-141 0-256-115-256-256c0-141 115-256 256-256c141 0 256 115 256 256c0 141-115 256-256 256m148-288c0-6-5-10-10-10l-96 0l0-97c0-6-4-10-10-10l-64 0c-6 0-10 4-10 10l0 97l-95 0c-6 0-11 4-11 10l0 64c0 6 5 10 11 10l95 0l0 95c0 6 4 11 10 11l64 0c6 0 10-5 10-11l0-95l96 0c5 0 10-4 10-10z"/>
<glyph unicode="&#57417;" d="M299 99c0-5-5-10-11-10l-63 0c-6 0-11 5-11 10l0 63c0 6 5 10 11 10l63 0c6 0 11-4 11-10z m-43 413c-141 0-256-115-256-256c0-141 115-256 256-256c141 0 256 115 256 256c0 141-115 256-256 256m60-252c-21-14-27-25-27-51c0-3-3-5-6-5l-53 0c-2 0-5 4-5 5l0 21c0 23 12 42 37 60c2 2 20 14 20 31c0 14-10 23-25 23c-22 0-34-10-35-31c0-3-2-5-5-5l-56 0c-2 0-3 1-4 2c-1 1-2 2-2 4c3 56 40 89 102 89c46 0 96-25 96-81c0-37-8-44-37-62"/>
<glyph unicode="&#57418;" d="M437 437c-100 100-262 100-362 0c-100-100-100-262 0-362c100-100 262-100 362 0c100 100 100 262 0 362m-107-299c-4-4-11-4-15 0l-59 59l-59-59c-4-4-11-4-15 0l-44 44c-4 4-4 11 0 15l59 59l-59 59c-4 4-4 11 0 15l44 44c4 4 11 4 15 0l59-59l59 59c4 4 11 4 15 0l44-44c4-4 4-11 0-15l-59-59l59-59c4-4 4-11 0-15z"/>
<glyph unicode="&#57419;" d="M379 346l-114-114l14-14l-178-204l-81 81l203 178l14-14l114 114z m-20 152l-58-55l173-177l18 14l0 82z"/>
<glyph unicode="&#57420;" d="M361 342l-116-116l14-14l-178-204l-81 81l204 178l14-14l116 116z m95 27c-41 41-81 82-81 82l-28 0l-27-28l0-27l61-61c0 0 22-20 48 7c68-69 75-130 75-130l7-7c0 0 14 96-55 164m-143 61l27 27l0 28l-21 19l-54-54l21-20l27 0z"/>
<glyph unicode="&#57421;" d="M256 190l0 41c0 0-25 107-126 107c-102 0-126-106-127-104l0-44l21 0l0-169l21-21l168 0l22 21l0 169z m-126 120c72 0 95-78 95-78l-191 0c0 0 24 78 96 78m147-226l211 0l21-84l-253 0z m211 48l0-37l-211 0l0 37c0 12 4 16 16 16l69 0l0 343c0 12 9 21 21 21c11 0 21-9 21-21l0-343l58 0c11 0 26-4 26-16"/>
<glyph unicode="&#57422;" d="M256 512c-141 0-256-115-256-256c0-141 115-256 256-256c141 0 256 115 256 256c0 141-115 256-256 256m111-161c4-4 4-11 0-15l-70-70c1-3 2-7 2-10c0-24-19-43-43-43c-16 0-30 11-37 22l-59 0c-6 0-11 5-11 11l0 20c0 6 5 11 11 11l59 0c7 11 21 22 37 22c4 0 8-1 12-2l69 69c4 4 11 4 15 0z m-111-287c-106 0-192 86-192 192c0 106 86 192 192 192c106 0 192-86 192-192c0-106-86-192-192-192"/>
<glyph unicode="&#57423;" d="M391 337c-13 0-25-3-37-6c-24 53-77 90-139 90c-85 0-153-69-153-153c0-5 0-11 1-16c-36-8-63-41-63-79c0-44 36-82 80-82l311 0c67 0 121 56 121 123c0 67-54 123-121 123"/>
<glyph unicode="&#57424;" d="M349 159c2-2 1-5-2-5l-60 0l0-117c0-6-2-8-8-8l-66 0c-6 0-9 2-9 8l0 117l-59 0c-3 0-4 3-2 5l100 117c0 2 2 2 3 2c1 0 2 0 4-2z m42 240c-13 0-25-2-37-6c-24 53-77 90-139 90c-85 0-153-68-153-153c0-5 0-10 1-15c-36-8-63-42-63-80c0-44 36-81 80-81l25 0c0 9 2 18 8 25l104 119c6 8 17 13 29 13c12 0 23-5 30-14l102-117c7-8 9-17 9-26l9 0c66 0 116 55 116 122c0 67-54 123-121 123"/>
<glyph unicode="&#57425;" d="M413 277c-70 0-128-51-137-119l-200 0c-42 0-76 36-76 78c0 36 26 68 60 76c-1 5-1 10-1 15c0 80 65 146 146 146c59 0 110-36 133-86c11 3 23 5 35 5c64 0 115-53 115-117c0-6 0-13-1-19c-22 13-47 21-74 21m99-138c0-55-44-100-99-100c-55 0-99 45-99 100c0 54 44 99 99 99c55 0 99-45 99-99m-40 9c0 6-4 10-10 10l-99 0c-5 0-9-4-9-10l0-19c0-6 4-10 9-10l99 0c6 0 10 4 10 10z"/>
<glyph unicode="&#57426;" d="M413 277c-70 0-128-51-137-119l-200 0c-42 0-76 36-76 78c0 36 26 68 60 76c-1 5-1 10-1 15c0 80 65 146 146 146c59 0 110-36 133-86c11 3 23 5 35 5c64 0 115-53 115-117c0-6 0-13-1-19c-22 13-47 21-74 21m99-138c0-55-44-100-99-100c-55 0-99 45-99 100c0 54 44 99 99 99c55 0 99-45 99-99m-40 9c0 6-4 10-10 10l-29 0l0 30c0 6-5 10-10 10l-20 0c-5 0-10-4-10-10l0-30l-30 0c-5 0-9-4-9-10l0-19c0-6 4-10 9-10l30 0l0-30c0-5 5-10 10-10l20 0c5 0 10 5 10 10l0 30l29 0c6 0 10 4 10 10z"/>
<glyph unicode="&#57427;" d="M512 276c0-67-54-122-121-122l-15 0c0 3-1 7-2 10c-5 10-16 17-27 17l-33 0c0 0 0 66 0 89c0 24-14 35-35 35l-66 0c-21 0-35-14-35-35l0-89l-33-1c-11 0-22-6-27-16c-1-3-2-7-2-10l-36 0c-44 0-80 37-80 81c0 38 27 72 63 80c-1 5-1 10-1 15c0 85 68 153 153 153c62 0 115-37 139-90c12 4 24 6 37 6c67 0 121-56 121-123m-369-128l100-117c1-1 2-2 3-2c1 0 2 1 4 2l99 117c2 3 1 6-2 6l-60 0l0 116c0 6-2 8-8 8l-66 0c-6 0-9-2-9-8l0-116l-58-1c-4 0-5-2-3-5"/>
<glyph unicode="&#57428;" d="M469 192c-21 11-136 75-184 101l0 30c0 6-2 12-7 17c0 0-17 18-50 51c-3 2-3 10 2 18c4 6 12 14 28 9c17-11 23-15 25-16c0 0 0 0 0-1c12-7 27-4 35 7c9 14 6 22-8 34c0 0-20 16-32 21c-34 15-69 3-89-28c-18-27-16-59 4-79c21-21 35-36 43-44l0-14c-38-21-171-94-193-106c-27-15-43-43-43-64l0-55c0-16 24-31 40-31l432 0c16 0 40 15 40 31l0 55c0 21-16 49-43 64m-21-75c0-6-5-11-11-11l-362 0c-6 0-11 5-11 11l0 16c0 6 9 13 14 15l178 89l177-89c6-2 15-9 15-15z"/>
<glyph unicode="&#57429;" d="M0 123l471 0l-48-41l-13-9c-10-6-27-12-38-12l-273 0c-11 0-28 6-38 12l-13 9z m451 266c33 0 61-27 61-61l0-41c0-34-28-62-61-62l-21 0l0-20c0-34-27-62-61-62l-267 0c-34 0-61 28-61 62l0 246l389 0l0-62l21 0m-170-122c21 21 37 37 37 56c0 26-23 49-48 49c-13 0-25-6-34-16c-9 10-21 16-34 16c-26 0-49-23-49-49c0-19 16-35 37-56c13-13 28-27 41-44l5-7l4 7c13 17 28 31 41 44m190 61c0 11-9 20-20 20l-21 0l0-82l21 0c11 0 20 9 20 21z"/>
<glyph unicode="&#57430;" d="M510 223c1 11 2 22 2 33c0 11-1 22-2 33l-68 17c-4 16-11 32-19 46l36 60c-14 17-29 33-47 47l-60-36c-14 8-30 15-46 19l-17 68c-11 1-22 2-33 2c-11 0-22-1-33-2l-17-68c-16-4-32-11-46-19l-60 36c-18-14-33-29-47-47l36-60c-8-14-15-30-19-46l-68-17c-1-11-2-22-2-33c0-11 1-22 2-33l68-17c4-16 11-32 19-46l-36-60c14-17 30-33 47-47l60 36c14-8 30-15 46-19l17-68c11-1 22-2 33-2c11 0 22 1 33 2l17 68c16 4 32 11 46 19l60-36c18 14 33 29 47 47l-36 60c8 14 15 30 19 46z m-254-57c-49 0-90 41-90 90c0 49 41 90 90 90c49 0 90-41 90-90c0-49-41-90-90-90"/>
<glyph unicode="&#57431;" d="M361 253c1 8 2 16 2 24c0 8-1 15-2 23l-48 12c-3 12-7 23-13 33l25 42c-9 13-21 24-33 33l-42-25c-11 6-22 10-33 13l-12 48c-8 1-16 2-24 2c-7 0-15-1-23-2l-12-48c-12-3-23-7-33-13l-42 25c-13-9-24-20-33-33l25-42c-6-10-10-21-13-33l-48-12c-1-8-2-15-2-23c0-8 1-16 2-24l48-12c3-11 7-22 13-33l-25-42c9-12 20-23 33-33l42 25c10-5 21-10 33-13l12-48c8-1 16-2 23-2c8 0 16 1 24 2l12 48c11 3 23 8 33 13l42-25c12 10 24 21 33 33l-25 42c6 11 10 22 13 33z m-180-40c-35 0-63 29-63 64c0 35 28 63 63 63c36 0 64-28 64-63c0-35-28-64-64-64m244-159c-4 0-8 0-11 1l-6 23l-1 0c-5 1-10 3-14 6l-1 0l-20-12c-7 5-12 10-16 16l12 20l0 1c-3 5-5 9-6 14l0 1l-23 6c-1 4-1 8-1 11c0 4 0 8 1 11l23 6l0 1c1 5 3 9 6 14l0 1l-12 20c5 6 10 12 16 16l20-12l1 0c4 3 9 5 14 6l1 0l6 23c4 1 7 1 11 1c4 0 7 0 11-1l6-23l1 0c5-1 9-3 14-6l1 0l20 12c6-5 11-10 16-16l-12-20l0-1c3-4 5-9 6-14l0-1l23-6c1-4 1-7 1-11c0-4 0-8-1-11l-23-6l0-1c-1-5-3-9-6-14l0-1l12-20c-5-6-10-12-16-16l-20 12l-1 0c-5-3-9-5-14-6l-1 0l-6-23c-4-1-8-1-11-1m0 120c-18 0-33-15-33-33c0-18 15-33 33-33c18 0 32 15 32 33c0 18-14 33-32 33"/>
<glyph unicode="&#57432;" d="M334 21c-21 0-41 3-61 11c-23-6-46-10-69-11c-42-3-85 1-126 12c-25 6-57 16-71 40c-10 16-6 40-6 58c0 10 5 19 15 29c-10 9-16 18-16 28l0 39c0 14 9 27 26 38c-4 6-6 13-6 20l0 39c0 13 9 26 26 37c-4 7-7 14-7 21l0 38c0 39 60 56 89 62c47 11 98 12 145 6c37-4 86-14 112-43c15-17 10-43 10-63c0-6-2-11-5-15c81-27 133-112 120-196c-13-85-90-150-176-150m0 316c-17 0-35-3-51-10c-75-30-109-119-73-192c20-39 60-69 104-74c80-14 156 53 159 132c2 77-62 144-139 144m-306-207c6-21 49-29 67-33c36-9 71-7 108-8c-7 8-15 18-20 28c-47 2-126 13-135 27l-2 3c-17-5-18-17-18-17m0 96c5-16 39-25 52-29c28-8 56-11 85-12c-1 12-1 25 1 37c-37 3-76 9-109 27c-9-4-26-10-29-20l0-1z m19 97c6-20 48-29 65-33c24-5 49-8 74-9c8 14 17 26 27 37c-46 1-115 17-137 28c-21-9-29-23-29-23m20 96c5-20 47-28 64-32c28-7 56-9 85-9c33 0 65 4 97 12c16 5 46 11 51 30l0 1c-5 17-36 24-51 29c-32 10-65 13-98 13c-33 0-67-4-100-14c-15-4-43-11-48-28z"/>
<glyph unicode="&#57433;" d="M0 404l0-296c0-60 48-108 108-108l296 0c60 0 108 48 108 108l0 296c0 60-48 108-108 108l-296 0c-60 0-108-48-108-108m431 54c15 0 27-12 27-27l0-350c0-15-12-27-27-27l-350 0c-15 0-27 12-27 27l0 350c0 15 12 27 27 27z m-242-94c0 15 15 20 27 11l143-103c12-9 13-23 1-32l-145-103c-12-9-26-4-26 11z"/>
<glyph unicode="&#57434;" d="M108 0l296 0c60 0 108 48 108 108l0 296c0 60-48 108-108 108l-296 0c-60 0-108-48-108-108l0-296c0-60 48-108 108-108m-54 431c0 15 12 27 27 27l350 0c15 0 27-12 27-27l0-350c0-15-12-27-27-27l-350 0c-15 0-27 12-27 27z m94-242c-15 0-20 15-11 27l103 143c9 12 23 13 32 1l103-145c9-12 4-26-11-26z"/>
<glyph unicode="&#57435;" d="M448 501l-384 0c-35 0-64-28-64-64l0-234c0-36 29-64 64-64l43 0l0-128l128 128l213 0c35 0 64 28 64 64l0 234c0 36-29 64-64 64"/>
<glyph unicode="&#57436;" d="M306 220l66 147c3 5 0 8-5 5l-147-66c-5-3-11-9-14-14l-66-147c-3-5 0-8 5-5l147 66c5 3 11 9 14 14m-68 18c-10 10-10 26 0 36c10 10 26 10 36 0c10-10 10-26 0-36c-10-10-26-10-36 0m18-238c-141 0-256 115-256 256c0 141 115 256 256 256c141 0 256-115 256-256c0-141-115-256-256-256m0 448c-106 0-192-86-192-192c0-106 86-192 192-192c106 0 192 86 192 192c0 106-86 192-192 192"/>
<glyph unicode="&#57437;" d="M401 193l89 29l0-36l-89-30z m89 163l-89-30l0-36l89 29z m-89-133l89 30l0 36l-89-30z m89-68l-66-21l-46 0l-66-67l-178 0l0-22l22-23l200 0l45 45l111 0l0 67l-22 0z m-89 290l-45 45l-200 0l-22-23l0-22l178 0l66-67l23 0l0-21l65 21l46 0l0 67z m-223-245l-44 0l0-22l44 0l0 22z m0 134l-44 0l0-22l44 0l0 22z m111-245l-267 0c-12 0-22 10-22 22l0 290c0 12 10 22 22 22l267 0c13 0 23-10 23-22l0-290c0-12-10-22-23-22m-22 156l-222 0l0-111l222 0l0 111z m0 133l-222 0l0-111l222 0l0 111z"/>
<glyph unicode="&#57438;" d="M105 178l296 0l33-89l-356 0z m374-111l-446 0c-12 0-22-10-22-22l0-45l490 0l0 45c0 12-10 22-22 22m-319 289l-34-111l251 0l-41 111z m151 67l-29 79c-2 5-9 10-15 10l-47 0c-6 0-13-5-15-11l-24-78z"/>
<glyph unicode="&#57439;" d="M482 166c2-6-1-8-6-5l-72 38c-23-7-48-11-74-11c-100 0-182 57-182 127c0 69 82 126 182 126c101 0 182-57 182-126c0-33-18-63-47-85z m-158-17c-120 0-214 70-214 159c0 13 2 27 6 39c-68-19-116-65-116-119c0-33 18-63 48-86l-18-65c-1-5 1-8 6-5l74 38c23-7 48-11 74-11c60 0 113 20 146 51c-2 0-4-1-6-1"/>
<glyph unicode="&#57440;" d="M256 0c-141 0-256 115-256 256c0 141 115 256 256 256c141 0 256-115 256-256c0-141-115-256-256-256m0 419c-90 0-163-73-163-163c0-90 73-163 163-163c90 0 163 73 163 163c0 90-73 163-163 163m70-116l0-24l-47 0l0 24l-46 0l0-70l46 0l0 23l47 0l0-23l-23-24l-94 0l-23 24l0 70l23 23l94 0z"/>
<glyph unicode="&#57441;" d="M492 443c11 0 20-9 20-20l0-59l-512 0l0 59c0 11 9 20 20 20l472 0m-492-138l512 0l0-216c0-11-9-20-20-20l-472 0c-11 0-20 9-20 20z m39-197l138 0l0 59l-138 0z"/>
<glyph unicode="&#57442;" d="M433 160l0 248l73 73l-28 28l-73-73l-247 0l0 59l-79 0l0-413l433 0l0 78l-79 0z m-106 197l-169-169l0 169z m-142-197l169 170l0-170z m-185 276l59 0l0-79l-59 0z m354-374l79 0l0-59l-79 0z"/>
<glyph unicode="&#57443;" d="M404 88c6 0 10-4 10-9l0-70l-316 0l0 70c0 5 4 9 10 9l296 0m70 316c-21 0-39-17-39-38c0-10 4-18 10-25l-120-104l-58 191c16 5 27 19 27 36c0 22-17 39-38 39c-21 0-38-17-38-39c0-17 11-31 27-36l-57-191l-121 103c6 7 10 16 10 26c0 21-18 38-39 38c-21 0-38-17-38-38c0-22 17-39 38-39c3 0 6 1 9 1l51-190l0-20c0-5 4-10 10-10l296 0c6 0 10 5 10 10l0 20l50 191c3-1 6-2 10-2c21 0 38 17 38 39c0 21-17 38-38 38"/>
<glyph unicode="&#57444;" d="M469 469l-64 0l0 43l-298 0l0-43l-64 0c-12 0-22-9-22-21c0-63 0-128 26-171c35-60 101-88 168-85c9-14 16-29 20-44l0-20c0-18-8-32-17-43l-26 0l0-21l-21 0l0-64l170 0l0 64l-21 0l0 21l-26 0c-9 11-17 25-17 43l0 24c3 15 9 28 15 41c28-8 70 4 95 14c30 12 50 30 73 60c23 30 31 42 31 181c0 12-10 21-22 21m-364-198c-46 47-43 95-42 156l44 0c0-38-1-53 12-89c15-38 39-70 64-102c-34 5-60 16-78 35c18-19-43 43 0 0m303 0c-22-22-49-32-87-35c24 30 48 56 68 94c19 38 16 56 16 97l43 0c0-12 1-32 1-43c0-62-19-91-41-113"/>
<glyph unicode="&#57445;" d="M426 493l0-472c0-11-9-21-21-21l-21 0c-12 0-22 10-22 21l0 170c0 0-63 20-63 64l0 153c0 18 12 40 26 50l75 49c14 10 26 4 26-14m-200 14c-1 2-3 2-4 0l-7-14c-1-2-2-6-2-8l0-102l-21 0l0 102c0 2-1 6-2 8l-7 14c-1 2-2 2-3 0l-7-14c-1-2-2-6-2-8l0-102l-21 0l0 102c0 2-1 6-2 8l-7 14c-1 2-3 2-4 0l-7-14c-1-2-2-6-2-8l0-102l-21 0l0 102c0 2-1 6-2 8l-7 14c-1 2-2 2-3 0l-7-14c-1-2-2-6-2-8l0-134c0-6 2-15 5-20l37-76l0-234c0-11 10-21 22-21l21 0c12 0 21 10 21 21l0 234l38 76c3 5 5 14 5 20l0 134c0 2-1 6-2 8z"/>
<glyph unicode="&#57446;" d="M213 386c0-12-10-22-22-22c-12 0-21 10-21 22c0 12 9 21 21 21c12 0 22-9 22-21m-87-22c-12 0-21-10-21-22c0-12 9-21 21-21c12 0 22 9 22 21c0 12-10 22-22 22m130 22c12 0 22 9 22 21c0 12-10 22-22 22c-11 0-21-10-21-22c0-12 10-21 21-21m60-49c-2 1-6 0-7-2l-60-87c-19-3-33-20-33-39c0-22 18-40 40-40c22 0 40 18 40 40c0 8-3 16-8 23l30 98c1 3 0 6-2 7m-211-38c-12 0-22-10-22-22c0-12 10-21 22-21c12 0 21 9 21 21c0 12-10 22-21 22m407-43c0-141-115-256-256-256c-141 0-256 115-256 256c0 141 115 256 256 256c141 0 256-115 256-256m-56 0c0 111-89 200-200 200c-111 0-200-90-200-200c0-111 89-200 200-200c111 0 200 89 200 200m-48 43c-12 0-21-10-21-22c0-12 9-21 21-21c12 0 22 9 22 21c0 12-10 22-22 22m0 43c0 12-9 22-21 22c-12 0-22-10-22-22c0-12 10-21 22-21c12 0 21 9 21 21m-86 65c-12 0-22-9-22-21c0-12 10-22 22-22c11 0 21 10 21 22c0 12-10 21-21 21m-6-260c-16-15-37-24-60-24c-23 0-44 9-60 24l-85 0c33-44 86-73 145-73c59 0 112 29 145 73z"/>
<glyph unicode="&#57447;" d="M409 512c-52 0-94-42-94-94c0-52 42-94 94-94c51 0 94 42 94 94c0 52-43 94-94 94m0-23c13 0 26-5 37-11l-97-98c-7 11-11 24-11 38c0 39 32 71 71 71m0-141c-14 0-27 4-38 11l97 97c7-11 11-24 11-38c0-39-32-70-70-70m-117-247c1-2 2-4 2-6l0-57c0-21-64-38-142-38c-79 0-143 17-143 38l0 57c0 2 1 4 3 6c39-24 119-25 140-25c20 0 101 1 140 25m-140 70c-21 0-101 1-140 25c-2-2-3-4-3-6l0-57c0-21 64-38 143-38c78 0 142 17 142 38l0 57c0 2-1 4-2 6c-39-24-120-25-140-25m0 94c-21 0-101 2-140 26c-2-2-3-4-3-7l0-56c0-21 64-38 143-38c78 0 142 17 142 38l0 56c0 3-1 5-2 7c-39-24-120-26-140-26m142 114l0-57c0-21-64-38-142-38c-79 0-143 17-143 38l0 57c0 21 64 38 143 38c78 0 142-17 142-38m-81 10c0 6-27 12-61 12c-34 0-62-6-62-12c0-7 28-13 62-13c34 0 61 6 61 13"/>
<glyph unicode="&#57448;" d="M490 439l-15 0l0 47c0 13-13 26-26 26l-57 0c-14 0-26-13-26-26l0-47l-15 0c-2 0-4-2-4-3l0-104c0-1 2-3 4-3l139 0c2 0 4 2 4 3l0 104c0 1-2 3-4 3m-106 47c0 6 2 8 8 8l57 0c6 0 8-2 8-8l0-47l-73 0z m-94-388c2-2 3-4 3-7l0-54c0-21-62-37-138-37c-75 0-137 16-137 37l0 54c0 3 1 5 2 7c38-23 116-25 135-25c20 0 98 2 135 25m-135 67c-19 0-97 1-135 24c-1-2-2-4-2-6l0-55c0-20 62-37 137-37c76 0 138 17 138 37l0 55c0 2-1 4-3 6c-37-23-115-24-135-24m0 91c-19 0-97 2-135 24c-1-2-2-4-2-6l0-55c0-20 62-36 137-36c76 0 138 16 138 36l0 55c0 2-1 4-3 6c-37-22-115-24-135-24m138 110l0-55c0-20-62-37-138-37c-75 0-137 17-137 37l0 55c0 20 62 36 137 36c76 0 138-16 138-36m-79 9c0 6-26 12-59 12c-32 0-59-6-59-12c0-7 27-12 59-12c33 0 59 5 59 12"/>
<glyph unicode="&#57449;" d="M282 101c2-2 2-4 2-6l0-57c0-21-63-38-142-38c-78 0-142 17-142 38l0 57c0 2 1 4 2 6c39-24 120-25 140-25c20 0 101 1 140 25m-140 70c-20 0-101 1-140 25c-1-2-2-4-2-6l0-57c0-21 64-38 142-38c79 0 142 17 142 38l0 57c0 2 0 4-2 6c-39-24-120-25-140-25m0 94c-20 0-101 2-140 26c-1-2-2-4-2-7l0-56c0-21 64-38 142-38c79 0 142 17 142 38l0 56c0 3 0 5-2 7c-39-24-120-26-140-26m142 114l0-57c0-21-63-38-142-38c-78 0-142 17-142 38l0 57c0 21 64 38 142 38c79 0 142-17 142-38m-81 10c0 6-27 12-61 12c-34 0-61-6-61-12c0-7 27-13 61-13c34 0 61 6 61 13m214 123c-52 0-95-32-95-95c0-62 43-95 95-95c53 0 95 39 95 91c0 53-42 99-95 99m57-104c0-6-4-10-9-10l-95 0c-5 0-10 4-10 10l0 19c0 5 5 9 10 9l95 0c5 0 9-4 9-9z"/>
<glyph unicode="&#57450;" d="M282 101c2-2 2-4 2-6l0-57c0-21-63-38-142-38c-78 0-142 17-142 38l0 57c0 2 1 4 2 6c39-24 120-25 140-25c20 0 101 1 140 25m-140 70c-20 0-101 1-140 25c-1-2-2-4-2-6l0-57c0-21 64-38 142-38c79 0 142 17 142 38l0 57c0 2 0 4-2 6c-39-24-120-25-140-25m0 94c-20 0-101 2-140 26c-1-2-2-4-2-7l0-56c0-21 64-38 142-38c79 0 142 17 142 38l0 56c0 3 0 5-2 7c-39-24-120-26-140-26m142 114l0-57c0-21-63-38-142-38c-78 0-142 17-142 38l0 57c0 21 64 38 142 38c79 0 142-17 142-38m-81 10c0 6-27 12-61 12c-34 0-61-6-61-12c0-7 27-13 61-13c34 0 61 6 61 13m214 123c-52 0-95-38-95-95c0-61 43-95 95-95c53 0 95 43 95 95c0 53-42 95-95 95m57-104c0-6-4-10-9-10l-29 0l0-28c0-5-4-10-9-10l-19 0c-6 0-10 5-10 10l0 28l-28 0c-5 0-10 4-10 10l0 19c0 5 5 9 10 9l28 0l0 29c0 5 4 9 10 9l19 0c5 0 9-4 9-9l0-29l29 0c5 0 9-4 9-9z"/>
<glyph unicode="&#57451;" d="M492 426l-336 0l-153-153c-4-4-4-10 0-14l153-173l336 0c11 0 20 9 20 20l0 300c0 11-9 20-20 20m-67-219c4-3 4-9 0-12l-36-37c-4-3-9-3-13 0l-49 50l-50-50c-3-3-9-3-12 0l-36 37c-4 3-4 9 0 12l49 50l-49 49c-4 4-4 9 0 13l36 36c3 4 9 4 12 0l50-49l50 49c3 4 8 4 12 0l36-36c4-4 4-9 0-13l-49-49z"/>
<glyph unicode="&#57452;" d="M511 502c2 5 0 7-5 4l-502-247c-6-2-5-4 1-4l244 0l1-246c0-5 2-6 4-1z m-333-206c-6 0-6 7-1 9l258 129c5 3 6 2 2-2l-140-124c-4-4-12-12-17-12l-102 0z"/>
<glyph unicode="&#57453;" d="M500 128l-489 0c-6 0-11-5-11-11l0-96l512 0l0 96c0 6-6 11-12 11m-31-64l-42 0l0 21l42 0z m-258 258l89 90l-68 68c-4 4-3 11 3 11l224 0c6 0 10-5 10-11l0-224c0-6-6-6-10-2l-68 68l-90-90z m-80-94c-4 4-4 11 0 15l16 16l90-91l-15-16c-5-4-11-4-15 0z m127-39l-90 91l22 21l90-90z"/>
<glyph unicode="&#57454;" d="M500 117l-489 0c-6 0-11-4-11-10l0-96l512 0l0 96c0 6-6 10-12 10m-31-64l-42 0l0 22l42 0z m-344 275l91 91l89-90l68 68c4 4 11 4 11-2l0-224c0-6-5-11-11-11l-224 0c-6 0-6 7-2 11l68 68z m-42 43l90 90l22-21l-91-91z m-37 37c-4 4-4 11 0 15l75 75c4 4 11 4 15 0l16-15l-90-91z"/>
<glyph unicode="&#57455;" d="M500 117l-489 0c-6 0-11-4-11-10l0-96l512 0l0 96c0 6-6 10-12 10m-31-64l-42 0l0 22l42 0z m-376 288l155 157c5 4 11 4 16 0l155-157c4-4 3-10-3-10l-96 0l0-160c0-6-5-11-11-11l-106 0c-6 0-11 5-11 11l0 160l-96 0c-6 0-7 6-3 10"/>
<glyph unicode="&#57456;" d="M500 141l-489 0c-6 0-11-5-11-11l0-96l512 0l0 96c0 6-6 11-12 11m-31-64l-42 0l0 21l42 0z m-71 338l-82-82l82-82c4-4 4-11 0-15l-45-45c-4-4-11-4-15 0l-82 82l-82-82c-4-4-11-4-15 0l-45 45c-4 4-4 11 0 15l82 82l-82 82c-4 4-4 11 0 15l45 45c4 4 11 4 15 0l82-82l82 82c4 4 11 4 15 0l45-45c4-4 4-11 0-15"/>
<glyph unicode="&#57457;" d="M93 320c-4 5-3 11 3 11l96 0l0 160c0 6 5 10 11 10l106 0c6 0 11-4 11-10l0-160l96 0c6 0 7-6 3-11l-155-157c-5-4-11-4-16 0z m419-213l0-96l-512 0l0 96c0 6 5 10 11 10l490 0c5 0 11-4 11-10m-43-32l-42 0l0-22l42 0z"/>
<glyph unicode="&#57458;" d="M70 314c-4 4-4 11 0 15l50 50c4 4 11 4 16 0l60-61c4-4 11-4 16 0l169 170c4 4 11 4 15 0l50-50c5-4 5-11 0-15l-234-235c-5-4-12-4-16 0z m442-197l0-96l-512 0l0 96c0 6 5 11 11 11l490 0c5 0 11-5 11-11m-43-32l-42 0l0-21l42 0z"/>
<glyph unicode="&#57459;" d="M512 311l-194 0l-60 185l-1 0l-60-185l-197 0l159-112l-59-183l-1 0l158 115l158-114l-60 182z m-255-129l-79-57l30 89l-80 56l99 0l30 94l31-94l96 0l-78-55l31-92z"/>
<glyph unicode="&#57460;" d="M494 475l-476 0c-10 0-18-8-18-18l0-311c0-10 8-18 18-18l201 0l0-18c0-37-35-37-35-37l-68 0c-3 0-6-3-6-6l0-30l292 0l0 30c0 3-3 6-6 6l-67 0c0 0-36 0-36 37l0 18l201 0c10 0 18 8 18 18l0 311c0 10-8 18-18 18m-19-329l-18 0l0 19l18 0z m0 37l-438 0l0 256l438 0z"/>
<glyph unicode="&#57461;" d="M486 218c0-7-5-13-12-13l-436 0c-7 0-12 6-12 13l0 76c0 7 5 13 12 13l436 0c7 0 12-6 12-13l0-76z m-179 230c0 7-6 13-13 13l-76 0c-7 0-13-6-13-13l0-77c0-7 6-13 13-13l76 0c7 0 13 6 13 13z m0-307c0 7-6 13-13 13l-76 0c-7 0-13-6-13-13l0-77c0-7 6-13 13-13l76 0c7 0 13 6 13 13z"/>
<glyph unicode="&#57462;" d="M508 347l-62-41c-5-3-12-3-16 0l-13 11c-4 4-11 3-15 0l-21-21c-4-4-10-4-14 0l-75 80c-3 4-3 11 0 14l104 104c9 10 18 11 18-1l0-29c0-6 0-11 4-15l92-90c4-4 2-9-2-12m-161-73l-76 81c-4 4-10 4-14 0c0 0-6-9-24-9l-146 0c0 0-15-1-27 7c-12 7-44 31-44 31c-5 2-9 4-13 0c-5-4-3-11 1-14l38-49c4-4 5-10 2-15l-38-52c-3-5-6-13-6-18l0-206c0-11 9-20 20-20l19 0c11 0 20 9 20 20l0 99l42 73c4 4 12 6 17 5l169-35c6-1 9-6 9-11l0-131c0-11 9-20 19-20l20 0c11 0 20 9 20 20l0 227c0 6-4 13-8 17"/>
<glyph unicode="&#57463;" d="M46 282l133 0l0 217c0 7 6 13 13 13l128 0c7 0 13-6 13-13l0-217l132 0c8 0 10-5 5-11l-206-267c-4-5-12-5-16 0l-206 267c-5 6-3 11 4 11"/>
<glyph unicode="&#57464;" d="M512 256c0-141-115-256-256-256c-141 0-256 115-256 256c0 141 115 256 256 256c141 0 256-115 256-256m-68 0c0 104-84 188-188 188c-104 0-188-84-188-188c0-104 84-188 188-188c104 0 188 84 188 188m-66 12l-118-155c-3-3-7-2-9 1l-118 154c-3 3-1 9 3 9l57 0l0 93c0 6 5 11 11 11l104 0c6 0 11-5 11-11l0-93l56 0c4 0 5-6 3-9"/>
<glyph unicode="&#57465;" d="M448 149l0-42l-180 0l157 183c4 4 2 9-3 9l-102 0l0 203c0 5-4 10-10 10l-107 0c-5 0-11-5-11-10l0-203l-100 0c-5 0-7-5-4-9l157-183l-181 0l0 42l-64 0l0-128c0-11 10-21 21-21l470 0c11 0 21 10 21 21l0 128z"/>
<glyph unicode="&#57466;" d="M428 51c0 0-44-41-166-41c-14 0-51 3-51 3l-1 202l-51-197l-75 43l105 277l0 20l-9 41l-11 103l20 0c0 0 5-72 72-72c67 0 72 72 72 72l20 0l-11-103l-9-41l0-20z"/>
<glyph unicode="&#57467;" d="M400 341l56 171l-41 0l-57-171l-90 0c3 11 5 21 5 32c0 71-58 129-129 129c-71 0-128-58-128-129c0-71 57-128 128-128c33 0 64 13 86 33l53-278l149 0l64 341z m-356 45c2 19 8 35 21 51l3 4l61-61l-81 0l-4 1z m21-76c-13 17-19 31-21 51l-1 6l86 0l-61-61z m73-33l-1-4l-5 0c-20 2-35 8-51 21l-4 3l61 61z m0 112l-61 61l4 3c16 13 31 19 50 21l7 0z m85 48c13-16 20-32 22-52l0-5l-85 0l61 61z m-72 33l1 4l5 0c19-2 35-9 51-21l4-3l-61-61z m57-176c-17-13-32-19-53-21l-4-1l0 86l60-61z m12 13l-63 63l88 0l-1-7c-2-19-9-38-21-53z"/>
<glyph unicode="&#57468;" d="M512 295l-39 0l0 59c0 11-9 20-20 20l-20 0c-11 0-19-9-19-20l0 40c0 11-9 20-20 20l-20 0c-11 0-19-9-19-20l0-99l-197 0l0 99c0 11-9 20-20 20l-20 0c-11 0-20-9-20-20l0-40c0 11-8 20-19 20l-20 0c-11 0-20-9-20-20l0-59l-39 0l0-78l39 0l0-59c0-11 9-20 20-20l20 0c11 0 19 9 19 20l0-40c0-11 9-20 20-20l20 0c11 0 20 9 20 20l0 99l196 0l0-99c0-11 9-20 20-20l20 0c11 0 19 9 19 20l0 40c0-11 9-20 20-20l20 0c11 0 20 9 20 20l0 59l39 0z"/>
<glyph unicode="&#57469;" d="M373 448c53 0 96-43 96-96c0-42-26-77-64-90l0-70l-42 0l0 64c0 64-64 128-64 128l0-64c0 0 38-19 42-58c-37 14-64 49-64 90c0 53 43 96 96 96m-32-384l22 0l0-64l21 0l0 64l21 0l0 107l-64 0z m-234 64l21 0l0-128l21 0l0 128l22 0l0 107l-64 0l0-107z m32 384c-53 0-96-43-96-96c0-41 26-76 63-90c-4 39-42 58-42 58l0 64c0 0 64-64 64-128l0-64l43 0l0 70c37 13 64 48 64 90c0 53-43 96-96 96"/>
<glyph unicode="&#57470;" d="M0 434l72 72c9 10 25 7 33-4l61-85c8-11 6-28-4-38l-52-52c26-36 58-75 100-117c42-42 81-74 117-100l52 52c10 10 28 12 39 3l84-59c11-9 14-25 4-35l-72-71c0 0-123-11-284 150c-161 161-150 284-150 284"/>
<glyph unicode="&#57471;" d="M386 233l0-115c0-47-38-86-86-86l-214 0c-48 0-86 39-86 86l0 214c0 48 38 86 86 86l214 0c9 0 17-1 25-4l-39-39l-222 0c-11 0-21-9-21-21l0-257c0-12 10-22 21-22l258 0c12 0 21 10 21 22l0 93z m123 197l-47 47c-4 4-11 4-15 0l-31-31l62-62l31 31c4 4 4 11 0 15m-266-279l-60 61l-35-90c-2-5 1-8 7-6z m216 214l-62 62l-195-195l62-62z"/>
<glyph unicode="&#57472;" d="M78 185c-6 0-8 10-4 14l176 227c4 5 9 4 13 0l176-227c3-5 1-14-4-14l-357 0z m4-41c-6 0-10-5-10-10l0-41c0-6 4-11 10-11l348 0c6 0 10 5 10 11l0 41c0 5-4 10-10 10z"/>
<glyph unicode="&#57473;" d="M430 369l-51 0l0 123c0 11-9 20-21 20c-11 0-20-9-20-20l0-123l-164 0l0 123c0 11-9 20-20 20c-12 0-21-9-21-20l0-123l-51 0c-6 0-10-5-10-11l0-51c0-61 102-133 102-231l0-35l41 0l0-41l82 0l0 41l41 0l0 35c0 98 102 170 102 231l0 51c0 6-4 11-10 11m-143-185l-62 0c-5 0-10 5-10 11c0 5 5 10 10 10l62 0c5 0 10-5 10-10c0-6-5-11-10-11m20 41l-102 0c-6 0-10 5-10 11c0 5 4 10 10 10l102 0c6 0 10-5 10-10c0-6-4-11-10-11m21 41l-144 0c-5 0-10 5-10 10c0 6 5 11 10 11l144 0c5 0 10-5 10-11c0-5-5-10-10-10m20 41l-184 0c-6 0-10 5-10 10c0 6 4 11 10 11l184 0c6 0 10-5 10-11c0-5-4-10-10-10"/>
<glyph unicode="&#57474;" d="M256 101c-85 0-155 70-155 155c0 85 70 155 155 155c85 0 155-70 155-155c0-85-70-155-155-155m89 196c-23 0-41-18-41-41c0-23 18-41 41-41c23 0 41 18 41 41c0 23-18 41-41 41m-178 0c-23 0-41-18-41-41c0-23 18-41 41-41c23 0 41 18 41 41c0 23-18 41-41 41m89 90c-23 0-42-19-42-42c0-23 19-42 42-42c23 0 42 19 42 42c0 23-19 42-42 42m189 125l-378 0c-37 0-67-30-67-67l0-378c0-37 30-67 67-67l378 0c37 0 67 30 67 67l0 378c0 37-30 67-67 67m-189-448c-106 0-192 86-192 192c0 106 86 192 192 192c106 0 192-86 192-192c0-106-86-192-192-192"/>
<glyph unicode="&#57475;" d="M445 512l-378 0c-37 0-67-30-67-67l0-378c0-37 30-67 67-67l378 0c37 0 67 30 67 67l0 378c0 37-30 67-67 67m-80-424l-218 0c-111 117-113 224-7 337l231 0c106-112 104-221-6-337m-210 313c-84-89-82-178 6-290l189 0c88 112 90 201 6 290z m45-134l-44 0l0 89l44 0z m89-133l-66 0l0 22c0 26 13 49 33 49c20 0 33-23 33-49z m67 133l-44 0l0 89l44 0z"/>
<glyph unicode="&#57476;" d="M229 139c1 5-3 10-9 10l-31 0c-6 0-10 5-8 10l28 108c1 6-2 10-8 10l-54 0c-6 0-9 5-7 10l71 215c2 5 8 10 14 10l141 0c6 0 9-4 6-10l-87-152c-3-5 0-9 6-9l54 0c6 0 8-4 6-9l-52-131c-3-5 0-10 6-10l32 0c6 0 8-3 4-8l-136-180c-4-5-6-4-5 2z"/>
<glyph unicode="&#57477;" d="M512 271l0-26l-188-108l0 45l135 76l-135 72l0 45z m-512 0l0-26l188-108l0 45l-135 76l135 72l0 45z"/>
<glyph unicode="&#57478;" d="M192 51l161 410l42 0l-160-410z m-192 177l188-108l0 45l-135 76l135 72l0 45l-188-104z m391 93l-14-37l82-43l-127-71l-8-21l0-29l188 108l0 26z"/>
<glyph unicode="&#57479;" d="M256 171l-256 256l512 0z m0-43l-107 107l-149-150l512 0l-149 150z m128 128l128-128l0 256z m-384 128l0-256l128 128z"/>
<glyph unicode="&#57480;" d="M402 198c-7-67-39-107-96-107c-53 0-85 40-102 85l109 0l18 68l-140 0c0 6-1 22 0 22l145 0l18 68l-152 0c15 68 48 87 104 87c47 0 89-42 95-87l90 0c-11 113-91 178-185 178c-106 0-177-65-201-178l-67 0l-18-68l77 0c0 0 0-16 0-22l-59 0l-18-68l87 0c26-99 96-176 199-176c105 0 177 86 186 198z"/>
<glyph unicode="&#57481;" d="M229 260l-103-86c-4-3-8-2-8 4l0 48l-108 0c-6 0-10 5-10 10l0 59c0 6 4 10 10 10l108 0l0 49c0 5 4 7 8 4l103-85c4-4 4-9 0-13m283 203l0-355c0-2-1-5-1-7c-1 0-1-1-2-2c0-1-1-2-2-4c-1 0-1-1-2-1c-1-1-2-2-4-3c-1 0-1-1-2-1c-1 0-1 0-2-1l-216-59c-2 0-4 0-5 0c-5 0-9 1-12 4c-5 3-8 9-8 15l0 40l-79 0c-11 0-19 8-19 19l0 52l98 82l0 49l-98 81l0 91c0 11 8 19 19 19l315 0c1 0 2 0 2 0c2 0 3 0 4-1c1 0 3-1 5-2c0 0 1 0 1-1c1 0 1 0 1 0c2-2 3-3 4-5c0-1 1-1 1-2c1-3 2-5 2-8m-39-26l-178-48l0-314l178 48z"/>
<glyph unicode="&#57482;" d="M404 512l-296 0c-60 0-108-48-108-108l0-296c0-60 48-108 108-108l296 0c60 0 108 48 108 108l0 296c0 60-48 108-108 108m54-431c0-15-12-27-27-27l-350 0c-15 0-27 12-27 27l0 350c0 15 12 27 27 27l350 0c15 0 27-12 27-27l0-350z m-94 242c15 0 20-15 11-27l-103-143c-9-12-23-13-32-1l-103 145c-9 12-4 26 11 26z"/>
<glyph unicode="&#57483;" d="M357 294c1-6 2-12 2-18c0-34-16-64-41-82l-27-68c120 19 221 125 221 125c0 0-42 74-125 119z m-4-117c26 25 41 60 41 99c0 9-1 17-2 26c36-18 65-38 79-51c-19-18-63-52-118-74m3 286l-28-70c-22 6-46 11-72 11c-169 0-256-153-256-153c0 0 102-109 222-127l-28-75l43 0l162 414z m-115-218l-13-13c-9 6-16 15-20 25l14 14c2-11 9-21 19-26m-193 6c14 13 39 32 72 49c-1-8-2-16-2-24c0-38 15-72 39-97c-50 22-90 55-109 72m193-77c-50 7-88 50-88 102c0 15 3 29 9 42c17 6 36 11 55 14c-18-12-30-33-30-56c0-38 30-68 67-69z"/>
<glyph unicode="&#57484;" d="M256 397c-169 0-256-153-256-153c0 0 122-129 256-129c134 0 256 129 256 129c0 0-87 153-256 153m-15-160l-13-12c-9 6-16 14-20 25l14 14c2-12 9-22 19-27m-54 31c0-38 31-69 69-69c38 0 69 31 69 69c0 24-12 45-30 57c19-3 37-7 54-13c6-13 10-28 10-44c0-56-46-103-103-103c-57 0-103 47-103 103c0 16 3 30 9 43c17 6 36 11 55 14c-18-12-30-33-30-57m-67 24c-1-7-2-15-2-24c0-37 15-71 39-96c-50 22-90 54-109 72c14 12 39 32 72 48m233-122c26 25 41 60 41 98c0 9-1 18-2 26c36-17 65-37 79-50c-19-18-63-52-118-74"/>
<glyph unicode="&#57485;" d="M478 377c27 27 53 63 15 101l-15 15c-39 39-77 10-102-15l-69-69c-1-1-1-3-2-4l-34 34c-7 7-18 7-25 0l-31-30c-6-7-6-18 1-25l24-24l-195-195c-15-16-24-42-19-63c0-1-2-6-3-7l-7-8c-21-20-21-53-1-72c19-20 52-20 72 1l8 7c1 2 6 3 8 3c20-4 46 4 62 19l194 195l25-24c7-7 18-7 24 0l31 30c7 7 7 18 0 25l-34 34c1 1 2 1 3 3z m-335-310c-8-9-24-14-35-11c-10 2-26-3-35-11l-7-8c-9-8-22-9-30-1c-8 8-7 21 1 30l8 8c8 8 13 24 11 34c-3 11 2 27 11 35l194 195l77-77z"/>
<glyph unicode="&#57486;" d="M463 354l49 50l-59 59l-49-49l-50 49l-49-49l-49 49l-49-49l-49 49l-50-49l-49 49l-59-59l49-50l-49-49l49-49l-49-49l49-49l-49-50l59-59l49 49l50-49l49 49l49-49l49 49l49-49l50 49l49-49l59 59l-49 50l49 49l-49 49l49 49z"/>
<glyph unicode="&#57487;" d="M512 384l0-256c0-6-4-8-8-4l-141 114l0-121c0-17-15-32-32-32l-299 0c-18 0-32 15-32 32l0 278c0 17 14 32 32 32l299 0c17 0 32-15 32-32l0-120l141 113c4 4 8 2 8-4"/>
<glyph unicode="&#57488;" d="M235 288l-86 0l0 213l86 0l0-213z m-107 107l-64 0l0-107l64 0z m384-363l0-21l-512 0l0 21c0 12 10 21 21 21l0 214l320 0l0-64l150 0l0-150c11 0 21-9 21-21m-405 192l-43 0l0-43l43 0z m64 0l-43 0l0-43l43 0z m64 0l-43 0l0-43l43 0z m64 0l-43 0l0-43l43 0z m85-43l-21 0l0-21l21 0z m43 0l-22 0l0-21l22 0z m42 0l-21 0l0-21l21 0z"/>
<glyph unicode="&#57489;" d="M501 439l-214-167l0 163c0 5-7 7-11 4l-215-167l0 158c0 6-4 10-10 10l-41 0c-5 0-10-4-10-10l0-348c0-6 5-10 10-10l41 0c6 0 10 4 10 10l0 159l215-167c4-4 11-2 11 4l0 163l214-167c4-4 11-2 11 4l0 357c0 5-7 7-11 4"/>
<glyph unicode="&#57490;" d="M423 439l-12-55l101 0l0-37l-21 0l-33-310l-165 0l-34 310l-21 0l0 37l131 0l22 91l121 0l0-36z m-359-402l128 0c30 0 55 24 55 54l-238 0c0-30 25-54 55-54m64 201c-82 0-119-33-119-73l238 0c0 40-37 73-119 73m119-92l-238 0c-5 0-9-4-9-9l0-18c0-5 4-9 9-9l238 0c5 0 9 4 9 9l0 18c0 5-4 9-9 9"/>
<glyph unicode="&#57491;" d="M512 430l0-348c0-6-5-10-10-10l-41 0c-6 0-10 4-10 10l0 159l-215-167c-4-4-11-2-11 4l0 163l-214-167c-4-4-11-2-11 4l0 357c0 5 7 7 11 4l214-167l0 163c0 5 7 7 11 4l215-167l0 158c0 6 4 10 10 10l41 0c5 0 10-4 10-10"/>
<glyph unicode="&#57492;" d="M501 437l-64 0c-6 0-10-4-10-10l0-64c0-6-5-11-11-11l-321 0c-6 0-10 5-10 11l0 64c0 6-5 10-11 10l-63 0c-6 0-11-4-11-10l0-234c0-6 5-12 11-12l61 0c6 0 12 5 13 11l0 64c2 6 8 11 14 11l314 0c6 0 12-5 14-11l0-64c1-6 7-11 13-11l61 0c6 0 11 6 11 12l0 234c0 6-5 10-11 10m-394-426l298 0l0 234l-298 0z m42 192l64 0l0-22l-64 0z m0-43l192 0l0-21l-192 0z m150-107l-150 0l0 22l150 0l0-22z m85 43l-235 0l0 21l235 0z m21 288c0-6-4-11-10-11l-278 0c-6 0-10 5-10 11l0 107c0 6 4 10 10 10l278 0c6 0 10-4 10-10l0-107z"/>
<glyph unicode="&#57493;" d="M351 155l-59 0l0 72c59 14 111 72 111 140c0 80-66 145-146 145c-80 0-148-65-148-145c0-67 46-123 105-139l0-73l-59 0c-11 0-20-13-20-24l0-27c0-10 9-26 20-26l59 0l0-52c0-11 9-26 19-26l40 0c10 0 19 15 19 26l0 52l59 0c11 0 20 16 20 26l0 27c0 11-9 24-20 24m-161 212c0 37 30 67 66 67c36 0 66-30 66-67c0-36-30-66-66-66c-36 0-66 30-66 66"/>
<glyph unicode="&#57494;" d="M459 363l0-352c0-6-5-11-11-11l-384 0c-6 0-11 5-11 11l0 490c0 6 5 11 11 11l245 0l0-139c0-6 5-10 11-10l139 0z m-128 149l0-117c0-6 4-11 10-11l118 0z"/>
<glyph unicode="&#57495;" d="M362 149l-163 0c-6 0-8 3-8 9l0 66c0 8 3 11 8 11l163 0l0 59c0 3 3 4 6 2l122-101c1-1 1-2 1-4c0-1 0-2-2-3l-121-103c-2-2-6-1-6 3l0 61z m25-87c-7-5-10-8-17-8c-19 0-29 15-29 34l0 40l-142 0c-23 0-29 7-29 30l0 71c0 22 13 27 29 27l142 0l0 38c0 18 10 33 28 33c8 0 13-3 19-7l38-33l0 76l-139 0c-6 0-10 4-10 10l0 139l-246 0c-6 0-10-5-10-11l0-490c0-6 4-11 10-11l384 0c6 0 11 5 11 11l0 84z m-78 322l117 0l-128 128l0-117c0-6 5-11 11-11"/>
<glyph unicode="&#57496;" d="M363 395l0 117l128-128l-118 0c-6 0-10 5-10 11m-11-32c-6 0-11 4-11 10l0 139l-245 0c-6 0-11-5-11-11l0-245l86 0l0 38c0 21 11 35 29 35c8 0 13-2 20-7l122-103c8-6 12-16 12-27c0-12-5-22-15-30l-118-101c-7-6-13-9-20-9c-19 0-30 15-30 36l0 40l-86 0l0-117c0-6 5-11 11-11l384 0c6 0 11 5 11 11l0 352z m-160-275c0-4 4-5 6-3l122 103c1 1 2 2 2 4c0 1-1 2-2 3l-122 101c-2 2-6 1-6-2l0-59l-163 0c-8 0-8-6-8-11l0-66c0-6 2-9 8-9l163 0z"/>
<glyph unicode="&#57497;" d="M453 512l-394 0c-11 0-20-9-20-20l0-472c0-11 9-20 20-20l394 0c11 0 20 9 20 20l0 472c0 11-9 20-20 20m-59-354l59 0l0-40l-59 0z m59-119l-59 0l0 40l59 0z m-59 197l59 0l0-39l-59 0z m0 79l59 0l0-39l-59 0z m0 79l59 0l0-40l-59 0z m0 79l59 0l0-40l-59 0z m-256 0l236 0l0-197l-236 0z m236-434l-236 0l0 197l236 0z m-315 119l59 0l0-40l-59 0z m59-119l-59 0l0 40l59 0l0-40z m-59 197l59 0l0-39l-59 0z m0 79l59 0l0-39l-59 0z m0 79l59 0l0-40l-59 0z m0 79l59 0l0-40l-59 0z"/>
<glyph unicode="&#57498;" d="M469 512l0-29c0-12-9-21-21-21l-384 0c-12 0-21 9-21 21l0 29z m-256-299l0-213l86 85l0 128l149 235l-384 0z"/>
<glyph unicode="&#57499;" d="M150 423l0 0c-2 17-21 33-42 33c-20 0-39-16-41-33l0 0l-67-268l0-83c0 0 30-33 109-33c78 0 108 33 108 33l0 83z m-42-114c-18 0-33 12-33 31c0 1 0 3 0 3c1 2 1 5 1 7c0 0 14 58 14 58c0 11 8 19 18 19c11 0 19-8 19-18c0 0 0 0 0 0l14-57c0-2 0-7 1-9c0 0 0-2 0-3c0-19-15-31-34-31m145 153l-1 0c-11 13-36 15-53 3c-16-12-22-37-14-51l0 0l103-257l48-67c0 0 44-9 108 37c63 46 68 90 68 90l-48 67z m33-116c-15-11-35-10-46 5c0 1-1 3-1 3c-1 1-3 4-4 6c0 0-23 55-23 55c-6 9-4 20 4 26c9 6 20 5 26-4c0 0 0 0 0 0l45-38c1-1 4-5 5-7l3-2c0 0-1 1 0 0c11-15 5-34-9-44"/>
<glyph unicode="&#57500;" d="M325 405c6-11 57-117 13-109c-44 9-110 138-102 216c0 0-84-63-68-155c15-92 37-160-21-158c-58 3-25 74-13 108c-97-58-82-154-78-186c4-26 17-88 83-113c101-23 140 145 137 201c27-33 45-78 42-108c-8-59-57-106-10-101c72 8 125 43 144 131c22 97-3 215-127 274"/>
<glyph unicode="&#57501;" d="M478 469c0 5-3 6-7 4l-60-42c-17 13-52 32-86 41l0 40l-73-36c-66-10-115-50-115-57c0-9 65-60 146-61c13 0 25 2 37 5l38-22l0 34c18 10 41 21 53 30l60-42c4-3 7-1 7 4c0 0-18 30-18 50c0 20 18 52 18 52m-264-50c-9 0-17 7-17 17c0 9 8 17 17 17c9 0 17-8 17-17c0-10-8-17-17-17m144-120c0 4-3 6-7 3l-59-42c-18 13-53 33-87 42l0 39l-73-36c-65-10-114-50-114-57c0-9 65-60 145-60c13 0 26 2 38 4l38-21l0 34c17 9 41 21 53 30l59-42c4-3 7-1 7 3c0 0-18 30-18 51c0 20 18 52 18 52m-264-51c-9 0-17 8-17 17c0 10 8 17 17 17c10 0 17-7 17-17c0-9-7-17-17-17m400-120c0 5-3 6-7 3l-59-42c-18 13-52 33-87 42l0 40l-73-37c-65-10-114-50-114-57c0-9 65-60 145-60c13 0 26 2 38 4l39-21l0 34c17 10 40 21 52 30l59-42c4-3 7-1 7 3c0 0-18 31-18 51c0 20 18 52 18 52m-264-51c-9 0-17 8-17 17c0 10 8 17 17 17c10 0 17-7 17-17c0-9-7-17-17-17"/>
<glyph unicode="&#57502;" d="M100 486l0-463l-1 0c1 0 1 2 1 0c0-14-14-23-31-23c-17 0-31 8-31 22c0 2 0 1 0 1l0 0l0 463c0 14 14 26 31 26c17 0 31-12 31-26m146-26c-84 0-125 31-125 31l0-270c0 0 41-31 125-31c83 0 114 72 228 31l0 270c-114 42-145-31-228-31"/>
<glyph unicode="&#57503;" d="M227 206c1 5-2 7-8 7l-102 0c-6 0-8 7-4 11c0 0 210 279 214 285c3 5 7 4 5-2c-1-7-46-197-46-197c-2-5 1-10 7-10l102 0c6 0 8-3 4-8c0 0-210-284-214-289c-4-5-7-5-5 4c2 8 47 199 47 199"/>
<glyph unicode="&#57504;" d="M372 419l-46 0l0 93l46 0z m47 93l-23 0l0-116l-280 0l0 116l-93 0c-13 0-23-11-23-23l0-466c0-13 10-23 23-23l47 0l0 233l372 0l0-233l47 0c13 0 23 10 23 23l0 396z"/>
<glyph unicode="&#57505;" d="M303 23l-94 0l0 93l-68 0l115 140l116-140l-69 0l0-93m69 489l-46 0l0-93l46 0z m47 0l-23 0l0-116l-280 0l0 116l-93 0c-13 0-23-11-23-23l0-466c0-13 10-23 23-23l47 0l0 233l122 0l64 78l65-78l121 0l0-233l47 0c13 0 23 10 23 23l0 396z"/>
<glyph unicode="&#57506;" d="M372 419l-46 0l0 93l46 0z m47 93l-23 0l0-116l-280 0l0 116l-93 0c-13 0-23-11-23-23l0-466c0-13 10-23 23-23l47 0l0 233l70 0l49 49l49-49l33 0l49 49l50-49l72 0l0-233l47 0c13 0 23 10 23 23l0 396z m-99-279l-65-66l-66 66l-49-50l65-65l-65-66l49-49l66 65l65-65l50 49l-66 66l66 65l-50 50"/>
<glyph unicode="&#57507;" d="M303 256l0-93l69 0l-116-140l-115 140l68 0l0 93l94 0m69 256l-46 0l0-93l46 0z m47 0l-23 0l0-116l-280 0l0 116l-93 0c-13 0-23-11-23-23l0-466c0-13 10-23 23-23l47 0l0 233l116 0l0 46l140 0l0-46l116 0l0-233l47 0c13 0 23 10 23 23l0 396z"/>
<glyph unicode="&#57508;" d="M372 419l-46 0l0 93l46 0z m47 93l-23 0l0-116l-280 0l0 116l-93 0c-13 0-23-10-23-23l0-466c0-13 10-23 23-23l47 0l0 233l208 0l77 77l77-77l10 0l0-233l47 0c13 0 23 10 23 23l0 396z m-64-252l-141-141l-48 48l-50-49l98-98l190 191l-49 49"/>
<glyph unicode="&#57509;" d="M236 387c-13 13-30 21-47 25c6 56 67 100 67 100c0 0 61-44 67-100c-17-4-34-12-47-25c-9-9-15-20-20-31c-5 11-11 22-20 31m112-204c5 7 12 15 0 0c-9-11-5-6 0 0c-19-25-15-48-13-61l-48-48l0 159c50 6 100 38 117 87c10 30 11 63 7 94c-15 0-31 1-45 1c2 21-1 54-1 54c0 0-14 2-33 2c19-24 23-79 23-79l-21-6c-25-6-45-21-55-45l-23-57l-23 57c-10 24-30 39-55 45l-21 6c0 0 4 55 23 79c-19 0-32-2-32-2c0 0-4-33-2-54c-14 0-30-1-45-1c-4-31-3-64 7-94c17-49 67-81 117-87l0-159l-48 48c2 13 6 36-13 61c5-6 9-11 0 0c-12 15-5 7 0 0c-22 28-48 27-105 43c0-132 74-128 104-120l62-62l0-44l62 0l0 44l62 62c30-8 104-12 104 120c-57-16-83-15-105-43"/>
<glyph unicode="&#57510;" d="M512 341l0-298c0-12-10-22-21-22l-470 0c-11 0-21 10-21 22l0 298c0 12 10 22 21 22l470 0c11 0 21-10 21-22m-21 43l0 43c0 11-10 21-22 21l-220 0l-8 22c-3 12-16 21-28 21l-106 0c-12 0-25-9-28-21l-8-22l-28 0c-12 0-22-10-22-21l0-43z"/>
<glyph unicode="&#57511;" d="M503 493l-105 0l0-161c0-5 4-10 10-10l0 0c5 0 9 5 9 10l0 47l19 8l0 0l67 27c5 2 9 7 9 13l0 57c0 5-4 9-9 9m-200-152l-284 0l0 38c0 11 9 19 19 19l25 0l7 20c3 10 14 18 25 18l95 0c10 0 21-8 25-18l6-20l139 0l0-57z m151-19l1 0l0-284c0-10-8-19-19-19l-417 0c-10 0-19 9-19 19l0 265c0 11 9 19 19 19l342 0c5-21 24-38 47-38c23 0 42 17 46 38"/>
<glyph unicode="&#57512;" d="M508 421l-14 0l0 46c0 14-13 27-27 27l-57 0c-14 0-26-13-26-27l0-46l-15 0c-2 0-3-2-3-4l0-103c0-2 1-3 3-3l140 0c1 0 3 1 3 3l0 103c0 2-2 4-4 4m-106 46c0 6 2 8 8 8l57 0c6 0 8-2 8-8l0-46l-73 0z m-109-138l-275 0l0 37c0 10 9 18 19 18l24 0l6 19c4 10 14 18 24 18l92 0c10 0 21-8 24-18l6-19l116 0l0-55z m146-55l0-237c0-10-8-19-18-19l-403 0c-10 0-18 9-18 19l0 256c0 10 8 18 18 18l311 0c2-21 19-37 40-37z"/>
<glyph unicode="&#57513;" d="M310 335l-292 0l0 36c0 9 8 17 17 17l24 0l6 19c3 9 14 17 23 17l89 0c9 0 20-8 23-17l6-19l94 0c0-20 4-37 10-53m9-17l-301 0c-10 0-18-8-18-18l0-247c0-10 8-18 18-18l388 0c10 0 18 8 18 18l0 212c-44 0-83 18-105 53m105 159c-49 0-89-31-89-89c0-58 40-88 89-88c48 0 88 36 88 85c0 49-40 92-88 92m53-97c0-5-4-9-9-9l-88 0c-5 0-9 4-9 9l0 17c0 5 4 9 9 9l88 0c5 0 9-4 9-9z"/>
<glyph unicode="&#57514;" d="M508 421l-34 0l22 20c2 1 2 2 0 4l-15 15c-2 1-2 1-4 0l-20-23l0 34c0 2-5 4-7 4l-22 0c-2 0-7-2-7-4l0-34l-21 22c-1 2-3 2-4 0l-15-15c-2-2-1-2 0-3l22-20l-34 0c-2 0-3-6-3-8l0-22c0-2 1-7 3-7l35 0l-23-20c-1-2-1-3 0-5l16-15c1-1 2-1 3 0l21 22l0-34c0-2 5-3 7-3l22 0c2 0 7 1 7 3l0 35l20-23c2-1 3-1 5 0l15 16c1 1 1 2 0 4l-23 20l34 0c2 0 4 5 4 7l0 22c0 2-2 8-4 8m-215-74l-275 0l0 37c0 10 9 18 19 18l24 0l6 20c4 9 14 17 24 17l92 0c10 0 21-8 24-17l6-20l116 0c0-20 6-38 15-55z m146-54l0-238c0-10-8-18-18-18l-403 0c-10 0-18 8-18 18l0 256c0 10 8 18 18 18l339 0c20-22 49-36 82-36"/>
<glyph unicode="&#57515;" d="M78 330c-4-9-78-193-78-193l0 257c0 9 8 17 17 17l23 0l6 18c3 9 14 17 23 17l86 0c10 0 20-8 23-17l6-18l161 0c9 0 17-8 17-17l0-52l-267 0c-5 0-13-2-17-12m422-5l-379 0c-10 0-20-7-24-16l-91-227c-3-8 2-16 11-16l380 0c9 0 20 8 23 16l91 227c3 9-2 16-11 16"/>
<glyph unicode="&#57516;" d="M310 335l-292 0l0 36c0 9 8 17 17 17l24 0l6 19c3 9 14 17 23 17l89 0c9 0 20-8 23-17l6-19l94 0c0-20 4-37 10-53m9-17l-301 0c-10 0-18-8-18-18l0-247c0-10 8-18 18-18l388 0c10 0 18 8 18 18l0 212c-44 0-83 18-105 53m105 159c-49 0-89-36-89-89c0-56 40-88 89-88c48 0 88 40 88 88c0 49-40 89-88 89m53-97c0-5-4-9-9-9l-27 0l0-27c0-5-4-9-8-9l-18 0c-5 0-9 4-9 9l0 27l-26 0c-5 0-9 4-9 9l0 17c0 5 4 9 9 9l26 0l0 27c0 4 4 8 9 8l18 0c4 0 8-4 8-8l0-27l27 0c5 0 9-4 9-9z"/>
<glyph unicode="&#57517;" d="M417 62l0-24l-152 0l0 24c28 0 37 28 30 48c-6 15-30 81-30 81l-143 0c0 0-21-53-33-86c-13-32 17-43 44-43l0-24l-133 0l0 24c0 0 20 9 30 19c11 10 19 27 19 27l146 366l33 0l140-363c0 0 8-18 22-34c15-15 27-15 27-15m-161 166l-43 115l-16 51l-65-166z m256 67l0-11l-76 0l0 11l21 10l-14 38l-67 0l-18-38l21-9l0-12l-57 0l0 12l18 9l71 169l16 0l69-170z m-73 65l-19 53l-8 23l-29-76z"/>
<glyph unicode="&#57518;" d="M485 250l-225-176c-5-4-11-2-11 4l0 163l-214-167c-5-4-12-2-12 4l0 356c0 6 7 8 12 4l214-167l0 163c0 6 6 8 11 4l226-176c4-3 3-9-1-12"/>
<glyph unicode="&#57519;" d="M393 410l-307 0l0 20c0 11 18 21 41 21l102 0l0 20c-23 0-41 9-41 21c0 11 18 20 41 20l20 0c23 0 41-9 41-20c0-12-18-21-41-21l0-20l103 0c22 0 41-10 41-21z m92-70c10-23-5-115-41-151c-24-24-40-56-51-85l0-43c0-33-28-61-62-61l-184 0c-34 0-61 28-61 61l0 267l-62 61l369 0l0-20l36 0c20 0 47-7 56-29m-70-122c32 32 32 110 14 110l-36 0l0-136c6 9 14 18 22 26"/>
<glyph unicode="&#57520;" d="M242 0c-30 0-59 22-59 64c0 37 0 96 0 136l-45-35c-8-6-19-5-26 2l-33 33c-6 6-7 15-3 22l89 181c3 7 10 11 18 11l196 0c8 0 15-4 18-11l39-78c2-3 2-5 2-9l0-132c0-9-5-16-14-19l-123-35l0-66c0-42-30-64-59-64m-39 260c3 0 6-1 8-3c7-3 11-13 11-20l0-193c0-18 10-14 20-14c9 0 19-4 19 14l0 101c0 9 6 16 15 19l123 35l0 113l-32 62l-172 0l-78-157l11-10l63 48c3 3 8 5 12 5m-40 252l0-59l0 0c1-10 9-20 20-20l216 0c10 0 19 10 20 20l0 0l0 59z"/>
<glyph unicode="&#57521;" d="M510 136l-64 258c-8 33-41 52-73 43l-86-30l-61 0l-87 30c-32 9-65-10-73-43l-64-258c-8-33 6-61 30-63c24-2 59 18 78 46l52 74c10-6 21-9 34-9c26 0 48 14 61 35c12-21 35-35 61-35c12 0 23 3 33 8l51-73c19-28 54-48 78-46c25 2 38 30 30 63m-365 190l-20 0l0 20l-20 0l0 20l20 0l0 21l20 0l0-21l20 0l0-20l-20 0z m51-109c-21 0-38 17-38 38c0 21 17 38 38 38c21 0 38-17 38-38c0-21-17-38-38-38m122 0c-22 0-39 17-39 38c0 21 17 38 39 38c21 0 38-17 38-38c0-21-17-38-38-38m20 121c-10 0-18 8-18 18c0 10 8 18 18 18c10 0 18-8 18-18c0-10-8-18-18-18m40-41c-10 0-18 9-18 19c0 10 8 18 18 18c10 0 19-8 19-18c0-10-9-19-19-19m0 82c-10 0-18 8-18 18c0 10 8 18 18 18c10 0 19-8 19-18c0-10-9-18-19-18m41-41c-10 0-18 8-18 18c0 10 8 18 18 18c10 0 18-8 18-18c0-10-8-18-18-18"/>
<glyph unicode="&#57522;" d="M401 114c-24-26-41-29-59-29c-18 0-35 4-53 8c-17 3-35 7-53 7c-13 0-25-2-46-15l-2 1c30 24 56 47 56 90c0 13-1 30-4 30l80 0l0 68l-102 0c-25 68-26 69-26 90c0 38 27 65 66 65c69 0 71-64 73-87l91 0c1 114-61 170-163 170c-114 0-173-69-173-141c0-39 15-74 28-97l-44 0l0-68l73 0c6 0 10-20 10-33c0-50-39-86-77-111l42-62c27 21 54 27 78 27c30 0 47-7 67-14c19-6 40-12 74-12c34 0 73 13 105 44z"/>
<glyph unicode="&#57523;" d="M49 165l166 0l0-165l-166 0z m248-165l166 0l0 165l-166 0z m207 380l0-61c0-6-5-9-10-9l-31 0l0-62l-166 0l0 145l-82 0l0-145l-166 0l0 62l-31 0c-5 0-10 3-10 9l0 61c0 6 5 13 10 13l33 0c-2 0 15 78 16 83c7 26 33 41 59 34c11-3 23-10 34-15c25-12 51-23 77-35c6-4 12-9 16-15c5 6 10 11 17 15c25 11 49 23 74 34c10 5 20 10 31 14c27 12 57-4 65-32c1-5 17-83 15-83l39 0c5 0 10-7 10-13m-293 21l-95 57l-13-59c-1-3 1-6 3-6l102 0z m198-2l-13 60l-96-58l3-8l102 0c3 0 4 3 4 6"/>
<glyph unicode="&#57524;" d="M453 85c-17 10-81 58-127 81l0 47l58 22l48-73l53 54l-81 26l-32 61l0 93c-6 60-54 116-116 116c-70 0-116-56-116-116l0-93l-32-60l-81-27l53-54l48 73l58-22l0-47c-46-23-110-71-127-81c-41-25-36-62-36-62l0 0l0-11c0-7 5-12 12-12l442 0c6 0 12 5 12 12l0 11c0 0 5 37-36 62"/>
<glyph unicode="&#57525;" d="M411 427l-54 0c-26 0-48-22-48-48l0-54c0-3 1-5 1-8l-60-61l-90 0l0 107c24 3 43 23 43 47l0 54c0 27-22 48-48 48l-54 0c-26 0-48-21-48-48l0-54c0-24 19-44 43-47l0-214c-24-3-43-23-43-47l0-54c0-27 22-48 48-48l54 0c26 0 48 21 48 48l0 54c0 24-19 44-43 47l0 43l103 0c9 0 17 3 23 10l75 75l50 0c26 0 48 22 48 48l0 54c0 26-22 48-48 48m-315 37c0 3 2 5 5 5l54 0c3 0 5-2 5-5l0-54c0-2-2-5-5-5l-54 0c-3 0-5 3-5 5z m64-416c0-3-2-5-5-5l-54 0c-3 0-5 2-5 5l0 54c0 2 2 5 5 5l54 0c3 0 5-3 5-5z m256 277c0-3-2-5-5-5l-54 0c-3 0-5 2-5 5l0 54c0 3 2 5 5 5l54 0c3 0 5-2 5-5z"/>
<glyph unicode="&#57526;" d="M256 367l93-111l-46 0l0-93l-94 0l0 93l-44 0z m256-5l0-212c0-82-68-150-150-150l-212 0c-83 0-150 68-150 150l0 212c0 83 67 150 150 150l212 0c82 0 150-67 150-150m-93 0c0 31-26 57-57 57l-212 0c-31 0-57-26-57-57l0-212c0-31 26-57 57-57l212 0c31 0 57 26 57 57l0 212z"/>
<glyph unicode="&#57527;" d="M427 160l0 299l-128 0l0 42l-83-74l83-75l0 43l64 0l0-235c-24-3-43-23-43-48l0-54c0-26 21-47 48-47l54 0c26 0 47 21 47 47l0 54c0 25-18 45-42 48m0-102c0-2-3-5-5-5l-54 0c-3 0-5 3-5 5l0 54c0 3 2 5 5 5l54 0c2 0 5-2 5-5z m-214 59l-64 0l0 236c24 2 43 22 43 47l0 54c0 26-21 47-48 47l-54 0c-26 0-47-21-47-47l0-54c0-25 18-45 42-47l0-300l128 0l0-42l83 74l-83 75l0-43z m-128 337c0 2 3 5 5 5l54 0c3 0 5-3 5-5l0-54c0-3-2-5-5-5l-54 0c-2 0-5 2-5 5z"/>
<glyph unicode="&#57528;" d="M229 256l-90 0l0 107c24 3 42 23 42 47l0 54c0 27-21 48-47 48l-54 0c-27 0-48-21-48-48l0-54c0-24 19-44 43-47l0-214c-24-3-43-23-43-47l0-54c0-27 21-48 48-48l54 0c26 0 47 21 47 48l0 54c0 24-18 44-42 47l0 43l103 0c9 0 17 3 23 9l87 88l0 52l-38 0z m-90-208c0-3-3-5-5-5l-54 0c-3 0-5 2-5 5l0 54c0 2 2 5 5 5l54 0c2 0 5-3 5-5l0-54z m-5 357l-54 0c-3 0-5 3-5 5l0 54c0 3 2 5 5 5l54 0c2 0 5-2 5-5l0-54c0-2-3-5-5-5m346 0l0-42l-64 0l0-64l-43 0l0 64l-64 0l0 42l64 0l0 64l43 0l0-64z"/>
<glyph unicode="&#57529;" d="M229 256l-90 0l0 107c24 3 43 23 43 47l0 54c0 27-22 48-48 48l-54 0c-26 0-48-21-48-48l0-54c0-24 19-44 43-47l0-214c-24-3-43-23-43-47l0-54c0-27 22-48 48-48l54 0c26 0 48 21 48 48l0 54c0 24-19 44-43 47l0 43l103 0c9 0 17 3 23 9l63 63l-46 46z m-154 208c0 3 2 5 5 5l54 0c3 0 5-2 5-5l0-54c0-2-2-5-5-5l-54 0c-3 0-5 3-5 5z m64-416c0-3-2-5-5-5l-54 0c-3 0-5 2-5 5l0 54c0 2 2 5 5 5l54 0c3 0 5-3 5-5z m256 297l-45-45l-39 39l45 45l-45 45l39 39l45-45l45 45l40-39l-46-45l46-45l-40-39z"/>
<glyph unicode="&#57530;" d="M432 299l-54 0c-24 0-44-19-47-43l-102 0l-90 87l0 20c24 3 42 23 42 47l0 54c0 27-21 48-47 48l-54 0c-27 0-48-21-48-48l0-54c0-24 19-44 43-47l0-214c-24-3-43-23-43-47l0-54c0-27 21-48 48-48l54 0c26 0 47 21 47 48l0 54c0 24-18 44-42 47l0 105l55-53c6-6 14-9 23-9l114 0c3-24 23-43 47-43l54 0c27 0 48 22 48 48l0 54c0 26-21 48-48 48m-357 165c0 3 2 5 5 5l54 0c2 0 5-2 5-5l0-54c0-2-3-5-5-5l-54 0c-3 0-5 3-5 5z m64-416c0-3-3-5-5-5l-54 0c-3 0-5 2-5 5l0 54c0 2 2 5 5 5l54 0c2 0 5-3 5-5l0-54z m298 149c0-3-2-5-5-5l-54 0c-2 0-5 2-5 5l0 54c0 3 3 5 5 5l54 0c3 0 5-2 5-5z"/>
<glyph unicode="&#57531;" d="M272 299l-43-43l-90 0l0 107c24 3 42 23 42 47l0 54c0 27-21 48-47 48l-54 0c-27 0-48-21-48-48l0-54c0-24 19-44 43-47l0-214c-24-3-43-23-43-47l0-54c0-27 21-48 48-48l54 0c26 0 47 21 47 48l0 54c0 24-18 44-42 47l0 43l103 0c9 0 17 3 23 9l55 56c-20 5-40 22-48 42m-197 165c0 3 2 5 5 5l54 0c2 0 5-2 5-5l0-54c0-2-3-5-5-5l-54 0c-3 0-5 3-5 5z m64-416c0-3-3-5-5-5l-54 0c-3 0-5 2-5 5l0 54c0 2 2 5 5 5l54 0c2 0 5-3 5-5l0-54z m320 379l0 21c0 23-20 43-43 43l-43 0c-23 0-42-20-42-43l0-21c-12 0-22-10-22-22l0-85c0-12 10-21 22-21l128 0c11 0 21 9 21 21l0 85c0 12-10 22-21 22m-43 0l-43 0l0 10c0 6 5 11 11 11l21 0c6 0 11-5 11-11z"/>
<glyph unicode="&#57532;" d="M427 149l0 299l-128 0l0 43l-83-75l83-74l0 42l64 0l0-235c-24-3-43-23-43-47l0-54c0-27 21-48 48-48l54 0c26 0 47 21 47 48l0 54c0 24-18 44-42 47m0-101c0-3-3-5-5-5l-54 0c-3 0-5 2-5 5l0 54c0 2 2 5 5 5l54 0c2 0 5-3 5-5z m-283 464l-54 0c-26 0-47-21-47-48l0-54c0-24 18-44 42-47l0-214c-24-3-42-23-42-47l0-54c0-27 21-48 47-48l54 0c27 0 48 21 48 48l0 54c0 24-19 44-43 47l0 214c24 3 43 23 43 47l0 54c0 27-21 48-48 48m5-464c0-3-2-5-5-5l-54 0c-2 0-5 2-5 5l0 54c0 2 3 5 5 5l54 0c3 0 5-3 5-5z m0 362c0-2-2-5-5-5l-54 0c-2 0-5 3-5 5l0 54c0 3 3 5 5 5l54 0c3 0 5-2 5-5z"/>
<glyph unicode="&#57533;" d="M276 237l224 275l-488 0l221-273l0-179l-149-49l0-11l341 0l0 11l-149 49l0 177z m-129 232l86-192l-150 192z"/>
<glyph unicode="&#57534;" d="M256 512c-141 0-256-115-256-256c0-141 115-256 256-256c141 0 256 115 256 256c0 141-115 256-256 256m-83-66c-14-16-29-37-41-63l-39 0c21 27 49 49 80 63m-104-104l49 0c-6-19-9-41-10-66l-57 0c2 24 8 46 18 66m0-173c-9 21-16 43-18 67l57 0c1-25 4-47 10-67z m25-40l38 0c12-26 26-46 40-61c-31 14-57 35-78 61m142-66c-12 7-39 27-61 66l61 0z m0 106l-78 0c-6 19-11 41-12 67l90 0z m0 107l-90 0c1 25 6 47 12 66l78 0z m0 107l-61 0c22 38 49 59 61 66z m208-41c10-20 16-42 18-66l-57 0c-2 25-5 47-11 66z m-24 41l-40 0c-13 27-28 48-42 63c32-14 60-36 82-63m-144 66c12-7 39-28 61-66l-61 0z m0-107l78 0c6-19 11-41 12-66l-90 0z m0-106l90 0c-1-26-6-48-12-67l-78 0z m0-173l0 66l61 0c-22-39-49-59-61-66m63 4c14 16 29 36 41 62l39 0c-21-27-48-48-80-62m105 102l-50 0c6 20 9 42 10 67l58 0c-2-24-9-46-18-67"/>
<glyph unicode="&#57535;" d="M262 431c0-17 14-32 15-49c-18 4-42 4-57 14c2 10 14 16 14 25c3-4 8-6 12-5c5 5 9 12 16 15m-6 81c141 0 256-115 256-256c0-141-115-256-256-256c-141 0-256 115-256 256c0 141 115 256 256 256m140-429c20 20 42 41 45 71c-8 7-15 2-24 1c-13 15-38 9-53 21c-20-1-42 2-62-5c-6-3-32-24-40-11c-4 5-1 17-2 23c-4 9-15 6-22 11c1 9 7 22-4 28c-14 2-15-6-26-10c-23-8-25 35-8 42c12-2 26 1 38-3c14-4 15-19 33-19c11 10 5 20 6 33c3 9 13 14 17 23c3 7 1 16 3 23c4 14 15 21 27 27c-2 7 0 11 4 16c15 0 29-6 40 7c-13 29-46 40-72 55c2 6 1 13 1 19c16-5 31-8 48-6l0 3c7 36-41 30-61 46l-1-1l-14 0l-1 1c-14-11-32-14-49-17c-9-1-17-3-26-5c-9-2-13 3-22 3c-18 0-33-13-45-25c-12-10 3-13 2-22c-2-22-13-41-21-62c-4-10-7-21-8-33c0-11 5-20 9-31c6-16 0-25 12-37c12-12 22-22 20-39c18-19 44-28 68-37c7-3 15-6 22-10c3-5 7-10 12-14c9-8 22-11 34-9c7-16-19-31-16-50c9-15 20-31 39-35c-1-8-8-11-1-20c34-1 75 24 98 48"/>
<glyph unicode="&#57536;" d="M256 512c-100 0-193-60-234-151c-41-92-23-203 45-278c68-74 176-102 272-69c94 32 162 118 172 217c14 149-106 281-255 281m-93-111c7 20 45-12 25-30c-5-4-31-4-26 3c2 2 6 2 8 5c6 8-3 16-7 22m181-286c-1-8-7-28-18-28c-8 0-8 11-7 17c3 19 12 23 22 38c8-6 3-19 3-27m25 141c-10-10-24-27-40-27c-11 0-12 34-25 40c-7 3-16-4-10-11c5-7 5-16 13-23c13-10 24-22 41-9c-2-20-17-31-28-46c-7-8-12-17-10-27c2-9 8-22 1-30c-5-5-15-8-16-17c1-3 2-6 2-10c-3-5-8-8-10-13c-5-9-15-27-26-31c-5-1-19-6-23-1c-11 14-7 47-14 63c-4 11 4 16 4 26c0 8-5 14-9 20c-4 8-3 14-3 23c0 8-8 4-12 6c-5 3-6 10-13 5c-6-3-25-7-32-5c-10 1-23 23-26 33c-2 8 5 17 2 24c-2 7 0 14 5 20c7 9 17 24 26 30c7 4 17 0 25 3c7 2 18 4 26 3c8-2-1-10 5-14c6-3 10-6 16-10c7-4 9 7 13 8c6 2 13 2 18 1c11-2 33 5 22 21c-4 5-14 7-19 9c-7 3-3 15-13 15c-7-2 3-9 1-13c-5-8-13 8-14 10c-1 2-17 24-22 19c-1-2 26-33 5-27c0 8-8 9-13 15c-6 7-11 4-18-2c-7-6-17-14-25-18c-18-9-15 10-15 20c0 8 11 4 15 6c12 5 0 10-3 15c4 6 24 12 30 13c13 4 24 14 40 7c3-1 23 11 8 15c-16 9-16-5-28-8c-1 13-33 14-21 32c10 15 18 17 47 19c20 1 30 1 35-3c4-4 6-18-5-19c2-18 20-1 28 3c11 8 36 3 40 6c3 2-3 10 0 15c3 5 10 2 11-2c13-3 19 7 32-2c41-27 72-66 88-129c8-29 9-60 1-58c-6 2-3 14-7 17c-9-2-26-18-30-27c-2-5 3-26-9-26c-4 0-7 17-7 20c-2 8-4 17-7 25c-5 9-8 3-15 4c-8 2-6 13-18 14c-11 1-15-7-14-17"/>
<glyph unicode="&#57537;" d="M410 152c0-26-21-46-46-46c-25 0-46 20-46 46c0 25 21 45 46 45c25 0 46-20 46-45m-76-81l20-20l0-46c0-3 2-5 5-5l10 0c3 0 5 2 5 5l0 46l20 20l0 10l-60 0z m136 436c-12 9-29 6-37-6l-111-156c-5-7-6-16-4-23l-152-213l-98 30c-29 9-44-7-35-36l16-47c9-28 39-40 65-27c0 0 50 26 71 50l159 223c8 1 16 4 21 12l112 155c8 13 5 29-7 38"/>
<glyph unicode="&#57538;" d="M427 393c-125-13-159-138-243-153c-13-2-25-4-35-6l0 129l149 64l-149 64c0 0-10 12-21 12c-12 0-22-9-22-21l0-257c-25-7-40-15-60-29c-54-39-85-169 52-185c137-15 203 43 243 90c39 47 28 150 132 189c58 22 58 114-46 103m-299-339c-37 0-66 15-66 33c0 14 19 26 44 31l0-20c0-12 10-22 22-22c11 0 21 10 21 22l0 20c25-5 44-17 44-31c0-18-29-33-65-33"/>
<glyph unicode="&#57539;" d="M256 512c-85 0-155-69-155-155c0-22 11-53 11-53c41-106 139-300 139-300c2-3 3-4 5-4c2 0 3 1 5 4c0 0 98 194 139 300c0 0 11 31 11 53c0 86-70 155-155 155m0-225c-39 0-71 31-71 70c0 39 32 71 71 71c39 0 71-32 71-71c0-39-32-70-71-70"/>
<glyph unicode="&#57540;" d="M363 512l-214 0c-47 0-85-38-85-85l0-427l43 0l0 43l298 0l0-43l43 0l0 427c0 47-38 85-85 85m-256-64c0 12 9 21 21 21l256 0c12 0 21-9 21-21l0-43l-298 0z m31-201c10 0 17-10 14-19l-14-26l-13 26c-4 9 3 19 13 19m0 83l-13 26c-10 24 36 24 27 0z m9-38c-10 24 35 24 26 0l-13-26z m20 69c0 22 35 15 27-5l-13-26l-13 26c-1 2-1 3-1 5m14-114c10 0 17-10 13-19l-13-26l-13 26c-4 9 3 19 13 19m8 45c-10 24 36 24 27 0l-14-26z m20 69c0 22 36 15 28-5l-13-26l-13 26c-1 2-2 3-2 5m15-114c9 0 17-10 13-19l-13-26l-13 26c-4 9 3 19 13 19m8 45c-10 24 36 24 26 0l-13-26z m20 69c0 22 35 15 28-5l-14-26l-13 26c-1 2-1 3-1 5m14-114c10 0 17-10 14-19l-14-26l-13 26c-4 9 3 19 13 19m9 45c-10 24 35 24 26 0l-14-26z m20 69c0 22 35 15 27-5l-13-26l-13 26c-1 2-1 3-1 5m14-114c10 0 17-10 13-19l-13-26l-13 26c-4 9 3 19 13 19m8 45c-10 24 36 24 27 0l-14-26z m20 69c0 22 36 15 28-5l-13-26l-13 26c-1 2-2 3-2 5m15-114c9 0 16-10 13-19l-14-26l-13 26c-3 9 4 19 14 19m8 45c-10 24 36 24 26 0l-13-26z m-243 19c10 0 17-10 13-19l-13-26l-13 26c-4 9 3 19 13 19m-13-147c-10 24 36 24 26 0l-13-26z m48-64l-14-26l-13 26c-10 24 36 24 27 0m-5 64c-10 24 35 24 26 0l-13-26z m47-64l-13-26l-13 26c-10 24 36 24 26 0m-5 64c-10 24 36 24 27 0l-14-26z m48-64l-13-26l-13 26c-10 24 35 24 26 0m-5 64c-10 24 36 24 26 0l-13-26z m48-64l-14-26l-13 26c-10 24 36 24 27 0m-5 64c-10 24 35 24 26 0l-14-26z m47-64l-13-26l-13 26c-10 24 36 24 26 0m-5 64c-10 24 36 24 27 0l-14-26z m48-64l-13-26l-13 26c-10 24 35 24 26 0m-5 64c-10 24 36 24 26 0l-13-26z m48-64l-14-26l-13 26c-10 24 36 24 27 0m0 128l-14-26l-13 26c-10 24 36 24 27 0m0 128l-14-26l-13 26c-10 24 36 24 27 0"/>
<glyph unicode="&#57541;" d="M424 137l0-37c0-2-2-5-4-5l-328 0c-2 0-4 3-4 5l0 37c0 15 3 21 14 28c10 5 73 42 103 55l0 55c-9 6-15 17-15 32l0 44c0 36 22 66 66 66c44 0 66-30 66-66l0-44c0-15-6-26-15-32l0-55c32-13 93-50 103-55c11-7 14-13 14-28m-332 47l2 1c33 19 60 34 79 44c-9 4-18 8-27 11l0 38c15 5 15 12 15 23l0 26c0 25-13 46-44 46c-30 0-44-21-44-46l0-26c0-11 0-18 15-23l0-38c-29-9-68-34-75-38c-8-5-13-9-13-20l0-25c0-2 1-4 3-4l64 0c3 13 10 23 25 31m407 18c-7 4-46 29-75 38l0 38c15 5 15 12 15 23l0 26c0 25-13 46-44 46c-31 0-44-21-44-46l0-26c0-11 0-18 15-23l0-38c-9-3-18-7-27-11c28-14 61-33 76-42l5-3c15-8 22-18 25-30l64 0c2 0 3 1 3 3l0 25c0 11-5 15-13 20"/>
<glyph unicode="&#57542;" d="M512 512l0-149l-43 0l0 106l-106 0l0 43z m-469-149l0 106l106 0l0 43l-149 0l0-149z m426-214l0-106l-106 0l0-43l149 0l0 149z m-426 0l-43 0l0-149l149 0l0 43l-106 0z m332 180l44-44c4-4 8-3 8 3l0 128c0 6-5 11-11 11l-128 0c-6 0-7-4-3-8l44-44l-73-74l-73 74l44 44c4 4 3 8-3 8l-128 0c-6 0-11-5-11-11l0-128c0-6 4-7 8-3l44 44l74-73l-74-73l-44 44c-4 4-8 3-8-3l0-128c0-6 5-11 11-11l128 0c6 0 7 4 3 8l-44 44l73 74l73-74l-44-44c-4-4-3-8 3-8l128 0c6 0 11 5 11 11l0 128c0 6-4 7-8 3l-44-44l-74 73z"/>
<glyph unicode="&#57543;" d="M315 74l-132 0c-9 0-17 5-19 14l-35 123l-66 0c-42 0-63 30-63 59c0 16 5 30 15 41c9 9 23 18 48 18c36 0 96 0 135 0l-34 45c-6 8-5 19 2 26l32 33c6 6 15 7 23 3l181-89c7-3 11-10 11-18l0-196c0-8-4-15-10-18l-79-39c-3-2-6-2-9-2m-117 39l112 0l64 32l0 172l-158 78l-10-11l48-63c5-6 5-14 2-20c-3-7-10-11-18-11l0 0c0 0-135 0-194 0c-8 0-13-7-13-20c0-12 5-19 13-19l100 0c8 0 16-6 18-15z m255 236c-11 0-20-9-20-20l0-216c0-11 9-20 20-20l59 0l0 256z"/>
<glyph unicode="&#57544;" d="M329 74l-132 0c-3 0-6 0-9 2l-79 39c-6 3-10 10-10 18l0 196c0 8 4 15 11 18l181 89c8 4 17 3 23-3l32-33c7-7 8-18 2-26l-34-45c39 0 99 0 135 0c42 0 63-29 63-59c0-29-21-59-63-59l-66 0l-35-123c-2-9-10-14-19-14m-127 39l112 0l36 123c2 9 10 15 18 15l100 0c18 0 12 10 12 19c0 10 6 20-12 20c-59 0-194 0-194 0l0 0c-8 0-15 4-18 11c-3 6-3 14 2 20l48 63l-10 11l-158-78l0-172z m-143 236l-59 0l0-256l59 0c11 0 20 9 20 20l0 216c0 11-9 20-20 20"/>
<glyph unicode="&#57545;" d="M478 442c-29 6-63 19-92 25c-29 6-17 26-34 37c-8 6-22 5-28-4l-315-459l50-37l39 0l0 39l39 0l0 38l38 0l0 39l39 0l0 38l38 0l0 39l39 0l0 38l38 0l0 39l39 0l0 39l77 0c17 0 30 3 34 14c3 12 17 50 20 61c6 20 9 47-21 54m-416-373c8 2 16-4 18-12c1-8-4-16-12-17c-9-2-16 4-18 12c-1 8 4 16 12 17m396 321c-2-7-17-37-17-37l-154 24l34 49c6 9 12 14 23 11l103-28c10-2 13-13 11-19"/>
<glyph unicode="&#57546;" d="M379 99l-196 0c-8 0-15 4-18 11l-89 181c-4 8-3 17 3 23l33 33c7 7 18 7 26 1l45-34c0 39 0 99 0 136c0 42 29 62 59 62c29 0 59-20 59-62l0-66l123-36c9-2 14-10 14-19l0-132c0-3 0-6-2-9l-39-78c-3-7-10-11-18-11m-184 39l172 0l32 64l0 113l-123 35c-9 2-15 10-15 19l0 100c0 19-10 14-19 14c-10 0-20 5-20-14l0-193c0-8-4-16-10-20c-7-3-15-2-21 2l-63 49l-11-11z m204-59l-216 0c-11 0-20-9-20-20l0-59l256 0l0 59c0 11-9 20-20 20"/>
<glyph unicode="&#57547;" d="M43 160c-11 0-21-3-30-8l73 307c3 12 15 21 26 21l287 0c12 0 24-9 26-21l74-307c-9 5-19 8-30 8z m426-21c24 0 43-20 43-43l0-21c0-24-19-43-43-43l-426 0c-24 0-43 19-43 43l0 21c0 23 19 43 43 43l426 0m-42-43l-22 0l0-21l22 0z m42 0l-21 0l0-21l21 0z"/>
<glyph unicode="&#57548;" d="M445 431l0-350c0-23 45-23 67-23l0-25l-223 0l0 25c23 0 67 0 67 23l0 153l-200 0l0-153c0-23 44-23 67-23l0-25l-223 0l0 25c22 0 67 0 67 23l0 350c0 23-45 23-67 23l0 25l223 0l0-25c-23 0-67 0-67-23l0-153l200 0l0 153c0 23-44 23-67 23l0 25l223 0l0-25c-22 0-67 0-67-23"/>
<glyph unicode="&#57549;" d="M136 186c0 0 11-31 11-85c0-53-11-85-11-85c0-6-5-11-11-11l-54 0c-6 0-7 5-7 11l0 170c0 6 1 11 7 11l54 0c6 0 11-5 11-11m305 11l-54 0c-6 0-11-5-11-11c0 0-11-31-11-85c0-53 11-85 11-85c0-6 5-11 11-11l54 0c6 0 7 5 7 11l0 170c0 6-1 11-7 11m-185 310c-135 0-256-121-256-256l0-128c0-6 5-11 11-11l21 0c6 0 11 5 11 11l0 128c0 111 101 192 213 192c112 0 213-81 213-192l0-128c0-6 5-11 11-11l21 0c6 0 11 5 11 11l0 128c0 135-121 256-256 256"/>
<glyph unicode="&#57550;" d="M479 289l0-162c-1-4-20-89-171-105c-6-13-18-22-33-22l-19 0c-21 0-37 17-37 37c0 21 16 37 37 37l19 0c12 0 23-6 30-16c112 13 134 66 137 75l0 156c0 97-88 167-186 167c-98 0-186-70-186-167l0-112c0-5-4-9-10-9l-18 0c-5 0-9 4-9 9l0 112c0 118 105 223 223 223c118 0 223-105 223-223m-337-47l-47 0c-5 0-7-4-7-10l0-148c0-5 2-10 7-10l47 0c5 0 9 5 9 10c0 0 10 28 10 74c0 47-10 75-10 75c0 5-4 9-9 9m282-95l0 85c0 6-2 10-7 10l-47 0c-5 0-9-4-9-9c0 0-10-28-10-75c0-16 4-38 6-54c33 9 52 26 67 43"/>
<glyph unicode="&#57551;" d="M256 423c-87 133-256 46-256-77c0-94 147-175 256-323c109 148 256 229 256 323c0 123-164 210-256 77"/>
<glyph unicode="&#57552;" d="M256 423c-87 133-256 46-256-77c0-94 147-175 256-323c109 148 256 229 256 323c0 123-164 210-256 77m0-313c-33 38-68 72-99 102c-55 54-103 101-103 135c0 50 48 88 90 88c26 0 48-14 66-42l45-67l46 66c19 28 43 43 70 43c41 0 87-38 87-89c0-33-48-80-103-133c-31-31-66-65-99-103"/>
<glyph unicode="&#57553;" d="M152 382c3-4 1-7-4-7l-47 0c0-48-11-74-21-96c-9-20-16-38-16-74c0-37 7-55 16-75c10-22 21-48 21-96l-54 0c0 37-7 54-16 74c-10 23-21 48-21 97c0 48 11 73 21 96c9 20 16 37 16 74l-42 0c-5 0-6 3-4 7l69 93c2 4 7 4 10 0z m179 0c3-4 2-7-3-7l-47 0c0-48-12-74-22-96c-8-20-16-38-16-74c0-37 8-55 16-75c10-22 22-48 22-96l-54 0c0 37-8 54-17 74c-10 23-21 48-21 97c0 48 11 73 21 96c9 20 17 37 17 74l-43 0c-4 0-6 3-3 7l68 93c3 4 8 4 11 0z m179 0c3-4 2-7-3-7l-47 0c0-48-11-74-21-96c-9-20-17-38-17-74c0-37 8-55 17-75c10-22 21-48 21-96l-54 0c0 37-8 54-16 74c-10 23-22 48-22 97c0 48 12 73 22 96c8 20 16 37 16 74l-42 0c-5 0-7 3-4 7l68 93c3 4 8 4 11 0z"/>
<glyph unicode="&#57554;" d="M366 337l-69-70c1-3 2-6 2-10c0-23-19-42-43-42c-16 0-29 11-37 21l-58 0c-6 0-11 5-11 11l0 20c0 6 5 11 11 11l58 0c8 11 21 22 37 22c4 0 8-1 12-2l69 68c4 4 11 4 15 0l14-14c5-5 5-11 0-15m140-122c2 21 4 28 4 43c0 140-114 254-254 254c-140 0-254-114-254-254c0-140 106-254 254-254l0 0c43 0 96 14 138 42l2 0l31-43c3-5 8-4 9 2l47 136c2 6-2 10-8 10l-144 0c-6 0-8-3-5-8l32-45c-31-20-59-30-102-30l0 0c-106 0-191 85-190 190c0 105 85 191 190 191c105 0 191-86 191-191c0-15-2-22-6-43l65 0l0 0z"/>
<glyph unicode="&#57555;" d="M62 186l0 9c0 18 29 33 64 33c36 0 64-15 64-33l0-9c0 0-6-32-62-32c-56 0-66 32-66 32m440 324c-12 8-25-9-25-9l-244-381c0 0-35-49-58-55c-23-6-46-6-97 7c-27 8-77 36-77-3c0-32 17-44 48-52c62-16 103-24 142-9c40 15 82 82 82 82l232 393c11 17 7 20-3 27"/>
<glyph unicode="&#57556;" d="M398 356l0 133l-76 0l0-58l-66 65l0 1l-256-254l75 0l0-228l133 0l0 152l95 0l0-152l133 0l0 228l76 0z"/>
<glyph unicode="&#57557;" d="M512 459c0 29-24 53-53 53l-406 0c-29 0-53-24-53-53l0-406c0-29 24-53 53-53l406 0c29 0 53 24 53 53z m-64-267l-128 0l0-128l-128 0l0 128l-128 0l0 128l128 0l0 128l128 0l0-128l128 0z"/>
<glyph unicode="&#57558;" d="M512 459c0 29-24 53-53 53l-406 0c-29 0-53-24-53-53l0-406c0-29 24-53 53-53l406 0c29 0 53 24 53 53z m-85-395l-107 0l0 171l-128 0l0-171l-107 0l0 384l107 0l0-128l128 0l0 128l107 0z"/>
<glyph unicode="&#57559;" d="M482 473l-452 0c-17 0-30-14-30-30l0-285l512 0l0 285c0 16-13 30-30 30m-9-276l-434 0l0 236l434 0z m-473-44l0-27c0-18 13-28 30-28l452 0c17 0 30 10 30 28l0 27z m366-108c6 0 6-6 0-6l-220 0c-6 0-5 6 0 6c6 0 51-6 51 34l0 19l118 0c0 0 0 0 0-19c0-40 46-34 51-34"/>
<glyph unicode="&#57560;" d="M511 249l-79 243c-2 6-8 9-14 9l-324 0c-6 0-12-4-14-10l-79-242c-1 0-1-228-1-228c0-6 5-10 11-10l490 0c6 0 11 4 11 10c0 0 0 228-1 228m-384 188l258 0l65-192l-87 0l-43-106l-128 0l-43 106l-87 0z"/>
<glyph unicode="&#57561;" d="M492 220c0 0 0-210 0-210c0-6-4-10-10-10l-452 0c-6 0-10 4-10 10c0 0 0 210 0 210l74 223c1 6 7 10 13 10l90 0l0-59l-60 0l-60-177l81 0l39-99l118 0l39 99l81 0l-60 177l-60 0l0 59l90 0c6 0 12-3 13-9l74-224m-140 154l-57 0l0 128c0 6-4 10-9 10l-60 0c-5 0-9-4-9-10l0-128l-56 0c-3 0-4-4-2-6l94-112c1-2 3-2 4-2c1 0 2 0 3 1l94 113c1 2 0 6-2 6"/>
<glyph unicode="&#57562;" d="M494 436l0-104c0-1-2-3-4-3l-139 0c-2 0-4 2-4 3l0 104c0 1 2 3 4 3l15 0l0 46c0 14 12 27 26 27l57 0c13 0 26-13 26-27l0-46l15 0c2 0 4-2 4-3m-110 3l73 0l0 46c0 7-2 9-8 9l-57 0c-6 0-8-2-8-9z m73-234l-23 69l-55 0l25-73l-75 0l-36-91l-110 0l-37 91l-75 0l56 165l166 0l0 55l-194 0c-5 0-10-4-12-9l-68-207c0-1-1-196-1-196c0-5 4-9 9-9l421 0c5 0 9 4 9 9c0 0 0 195 0 196"/>
<glyph unicode="&#57563;" d="M454 212l-23 72l-57 0l26-75l-78 0l-38-95l-113 0l-38 95l-78 0l58 170l171 0l0 57l-200 0c-5 0-11-4-13-9l-70-215c-1-1-1-203-1-203c0-5 4-9 9-9l437 0c5 0 9 4 9 9c0 0 0 202-1 203m-37 300c-52 0-95-32-95-95c0-62 43-95 95-95c53 0 95 39 95 91c0 53-42 99-95 99m57-104c0-6-4-10-9-10l-95 0c-5 0-10 4-10 10l0 19c0 5 5 9 10 9l95 0c5 0 9-4 9-9z"/>
<glyph unicode="&#57564;" d="M493 217c0 0 0 3-1 4l-73 225c-2 5-8 9-13 9l-56 0l44-60l-19 0l61-178l-81 0l-40-98l-118 0l-40 98l-81 0l61 178l-19 0l44 60l-56 0c-5 0-11-5-13-10l-73-224c-1-1-1-4-1-4l0 0l0-207c0-6 4-10 10-10l454 0c6 0 10 4 10 10l0 207z m-141 178l-56 0l0-133c0-5-5-5-10-5l-60 0c-5 0-10 0-10 5l0 133l-55 0c-3 0-4 2-2 4l94 112c1 1 3 1 4 1c1 0 2-1 3-2l94-111c2-2 1-4-2-4"/>
<glyph unicode="&#57565;" d="M455 9c0-5-4-9-9-9l-437 0c-5 0-9 4-9 9c0 0 0 202 1 203l70 215c2 5 8 9 13 9l200 0l0-57l-171 0l-58-170l78 0l38-95l113 0l38 95l78 0l-26 75l57 0l23-72c1-1 1-203 1-203m-38 503c-52 0-95-38-95-95c0-61 43-95 95-95c53 0 95 43 95 95c0 53-42 95-95 95m57-104c0-6-4-10-9-10l-29 0l0-28c0-5-4-10-9-10l-19 0c-6 0-10 5-10 10l0 28l-28 0c-5 0-10 4-10 10l0 19c0 5 5 9 10 9l28 0l0 29c0 5 4 9 10 9l19 0c5 0 9-4 9-9l0-29l29 0c5 0 9-4 9-9z"/>
<glyph unicode="&#57566;" d="M427 512l-342 0c-21 0-38-17-38-38l0-436c0-21 17-38 38-38l342 0c21 0 38 17 38 38l0 436c0 21-17 38-38 38m-171-506c-12 0-22 10-22 22c0 13 10 23 22 23c12 0 22-10 22-23c0-12-10-22-22-22m152 51l-304 0l0 398l304 0l0-398z"/>
<glyph unicode="&#57567;" d="M352 512l-192 0c-29 0-53-24-53-53l0-406c0-29 24-53 53-53l192 0c29 0 53 24 53 53l0 406c0 29-24 53-53 53m-96-496c-21 0-38 16-38 37c0 21 17 38 38 38c21 0 38-17 38-38c0-21-17-37-38-37m-107 411l214 0l0-320l-214 0z"/>
<glyph unicode="&#57568;" d="M440 259c2-2 1-4-1-6l-98-83c-2-1-6 0-6 2l0 49l-158 0l0-49c0-2-4-3-6-2l-98 83c-2 2-3 4-1 6l99 82c2 2 6 1 6-2l0-48l158 0l0 48c0 3 4 4 6 2l99-82m-193-74l0-97c0-24-20-44-44-44l-159 0c-24 0-44 20-44 44l0 336c0 24 20 44 44 44l159 0c24 0 44-20 44-44l0-97l-35 0l0 70l-177 0l0-265l177 0l0 53z m-123-128c17 0 31 14 31 31c0 18-14 32-31 32c-18 0-32-14-32-32c0-17 14-31 32-31m344 411c24 0 44-20 44-44l0-336c0-24-20-44-44-44l-159 0c-24 0-44 20-44 44l0 97l35 0l0-53l177 0l0 265l-177 0l0-70l-35 0l0 97c0 24 20 44 44 44l159 0m-80-411c18 0 32 14 32 31c0 18-14 32-32 32c-17 0-31-14-31-32c0-17 14-31 31-31"/>
<glyph unicode="&#57569;" d="M352 512l-192 0c-29 0-53-24-53-53l0-406c0-29 24-53 53-53l192 0c29 0 53 24 53 53l0 406c0 29-24 53-53 53m-96-496c-21 0-38 16-38 37c0 21 17 38 38 38c21 0 38-17 38-38c0-21-17-37-38-37m-107 411l214 0l0-320l-214 0z m-64-292l-69 257c-7 28 10 57 38 65l38 10c-4-9-7-20-7-32l0-58l-19-5l19-72z m342 0l69 257c7 28-10 58-38 65l-38 10c4-9 7-20 7-32l0-58l19-5l-19-72z"/>
<glyph unicode="&#57570;" d="M351 253l-98-83c-2-1-6 0-6 2l0 49l-79 0c-5 0-9 4-9 9l0 52c0 5 4 9 9 9l79 0l0 48c0 3 3 4 6 2l99-82c2-2 1-4-1-6m117 215c24 0 44-20 44-44l0-336c0-24-20-44-44-44l-159 0c-24 0-44 20-44 44l0 49c0 2 7 4 11 6l24 21l0-32l177 0l0 265l-177 0l0-50c0 0-35 26-35 27l0 50c0 24 20 44 44 44l159 0m-80-411c18 0 32 14 32 31c0 18-14 32-32 32c-17 0-31-14-31-32c0-17 14-31 31-31m-176 115c0-20 16-36 35-37l0-47c0-24-20-44-44-44l-159 0c-24 0-44 20-44 44l0 336c0 24 20 44 44 44l159 0c24 0 44-20 44-44l0-47c-19-2-35-18-35-38l0-12l0 70l-177 0l0-265l177 0l0 53l0-13m-88-115c17 0 31 14 31 31c0 18-14 32-31 32c-18 0-32-14-32-32c0-17 14-31 32-31"/>
<glyph unicode="&#57571;" d="M387 512l-262 0c-18 0-32-14-32-32l0-448c0-18 14-32 32-32l262 0c18 0 32 14 32 32l0 448c0 18-14 32-32 32m-131-457c-53 0-95 42-95 95c0 53 42 95 95 95c53 0 95-42 95-95c0-53-42-95-95-95m37 95c0-20-17-37-37-37c-20 0-37 17-37 37c0 20 17 37 37 37c20 0 37-17 37-37m79 176l-232 0l0 139l232 0z"/>
<glyph unicode="&#57572;" d="M0 34l512 0l0 444l-512 0z m256 55c-92 0-167 75-167 167c0 92 75 167 167 167c92 0 167-75 167-167c0-92-75-167-167-167m97 167c0-54-43-97-97-97c-54 0-97 43-97 97c0 54 43 97 97 97c54 0 97-43 97-97"/>
<glyph unicode="&#57573;" d="M395 488l0 24l-172 0l0-24c43-12 39-16 33-53l-69-359c-4-28-28-48-70-52l0-24l192 0l0 24c-22 4-42 24-38 52l61 359c6 37 12 41 63 53"/>
<glyph unicode="&#57574;" d="M0 213c0 6 5 11 11 11l490 0c6 0 11-5 11-11l0-42c0-6-5-11-11-11l-490 0c-6 0-11 5-11 11z m0 86c0-6 5-11 11-11l490 0c6 0 11 5 11 11l0 42c0 6-5 11-11 11l-490 0c-6 0-11-5-11-11z m0 128c0-6 5-11 11-11l490 0c6 0 11 5 11 11l0 42c0 6-5 11-11 11l-490 0c-6 0-11-5-11-11z m0-384c0-6 5-11 11-11l490 0c6 0 11 5 11 11l0 42c0 6-5 11-11 11l-490 0c-6 0-11-5-11-11z"/>
<glyph unicode="&#57575;" d="M398 43l43-43l-410 0l43 43l0 22l324 0z m105 316c0-121-105-185-105-221c0 0 14-52-43-52l-238 0c-23 0-43 20-43 44l0 126l-65 198l87 0c0 0 48 58 151 58c104 0 256-31 256-153m-105-105c25 23 53 37 53 101c0 48-31 58-53 59z m-65 92c0 23-14 43-32 43c-12 0-22-9-28-22l17 0l0-21l-21 0l0-22l21 0l0-22l-21 0l0-21l21 0l0-22l-21 0l0-21l21 0l0-22l-21 0l0-22l21 0l0-21l-17 0c6-13 16-22 28-22c18 0 32 20 32 43z"/>
<glyph unicode="&#57576;" d="M493 389l-209 0l0 38l-19 0l0 76l-19 0l0-76l-18 0l0-38l-209 0c-10 0-19-9-19-19l0-342c0-10 9-19 19-19l474 0c10 0 19 9 19 19l0 342c0 10-9 19-19 19m-19-342l-436 0l0 304l436 0z m-85 95c5 0 9-4 9-9l0-38c0-5-4-10-9-10l-266 0c-5 0-9 5-9 10l0 38c0 5 4 9 9 9l266 0m-275 67c0 5 4 9 9 9l38 0c5 0 10-4 10-9l0-38c0-6-5-10-10-10l-38 0c-5 0-9 4-9 10l0 38m151 0c0 5 5 9 10 9l38 0c5 0 9-4 9-9l0-38c0-6-4-10-9-10l-38 0c-5 0-10 4-10 10l0 38m-75 0c0 5 4 9 9 9l38 0c5 0 10-4 10-9l0-38c0-6-5-10-10-10l-38 0c-5 0-9 4-9 10l0 38m199 9c5 0 9-4 9-9l0-38c0-6-4-10-9-10l-38 0c-5 0-10 4-10 10l0 38c0 5 5 9 10 9l38 0m-10 66c0 6 5 10 10 10l38 0c5 0 9-4 9-10l0-37c0-6-4-10-9-10l-38 0c-5 0-10 4-10 10l0 37m-294-47c-5 0-9 4-9 10l0 37c0 6 4 10 9 10l38 0c5 0 10-4 10-10l0-37c0-6-5-10-10-10l-38 0m190 57c5 0 9-4 9-10l0-37c0-6-4-10-9-10l-38 0c-5 0-9 4-9 10l0 37c0 6 4 10 9 10l38 0m-76 0c5 0 10-4 10-10l0-37c0-6-5-10-10-10l-38 0c-5 0-9 4-9 10l0 37c0 6 4 10 9 10l38 0m114-57c-5 0-10 4-10 10l0 37c0 6 5 10 10 10l38 0c5 0 9-4 9-10l0-37c0-6-4-10-9-10z m-152 76l-38 0c-5 0-9 4-9 9c0 6 4 10 9 10l38 0c5 0 10-5 10-10c0-4-5-9-10-9m76 0l-38 0c-5 0-9 4-9 9c0 6 4 10 9 10l38 0c5 0 10-5 10-10c0-4-5-9-10-9m76 0l-38 0c-5 0-10 4-10 9c0 6 5 10 10 10l38 0c5 0 9-5 9-10c0-4-4-9-9-9m76 0l-38 0c-5 0-10 4-10 9c0 6 5 10 10 10l38 0c5 0 9-5 9-10c0-4-4-9-9-9"/>
</font>
</defs>
</svg>
