<?xml version="1.0" standalone="no"?>
<!DOCTYPE svg PUBLIC "-//W3C//DTD SVG 1.1//EN" "http://www.w3.org/Graphics/SVG/1.1/DTD/svg11.dtd" >
<svg>
<metadata>
Created by FontForge 20110222 at Wed Aug 27 09:26:04 2014
 By Orthosie Webhosting
</metadata>
<defs>
<font id="YekanWeb-Regular" horiz-adv-x="0" >
  <font-face 
    font-family="YekanWeb-Regular"
    font-weight="400"
    font-stretch="normal"
    units-per-em="2048"
    panose-1="2 0 5 3 0 0 0 0 0 0"
    ascent="1638"
    descent="-410"
    bbox="-348 -941 2475 2240"
    underline-thickness="100"
    underline-position="-100"
    unicode-range="U+0020-FEFC"
  />
<missing-glyph horiz-adv-x="1024" 
d="M102 0v1092h820v-1092h-820zM204 102h616v888h-616v-888z" />
    <glyph glyph-name="afii64184" unicode="&#xfedf;&#xfee0;&#x651;&#x670;&#xfeea;" horiz-adv-x="2401" arabic-form="isolated" 
d="M1511 1432h-66v274h66v-274zM1684 1221q0 -51 -28 -83t-74 -32t-95 49q-27 -49 -88 -49q-57 0 -83.5 28t-26.5 87v100h68v-98q0 -39 48 -39q47 0 47 39v98h65v-98q0 -21 16 -32t40 -11h5q35 2 35 38v103h71v-100zM405 151q73 0 133 53.5t60 123.5q0 59 -35 114l-81 81
q-20 20 -47 47.5t-34 34.5l-7 -8q-109 -100 -141 -152q-34 -54 -34 -109q0 -56 47 -121q48 -64 139 -64zM752 224q-109 -237 -350 -237q-145 0 -250.5 106.5t-105.5 252.5q0 99 73 207q31 49 157 175l-57 66l118 117l567 -603q80 -83 108 -106h1l1 -1q39 -19 116 -20v-3
l62 -2h66q90 0 119.5 46.5t29.5 154.5v643h168v-679q0 -108 69 -144h1l2 -1q63 -15 183 -15h117q84 0 112.5 45t28.5 151v844h167v-925q0 -133 -81.5 -209.5t-217.5 -76.5h-183q-121 0 -165.5 13t-110.5 68q-71 -61 -127 -70q-60 -11 -255 -11q-122 3 -153 34h-1
q-16 6 -209 180z" />
    <glyph glyph-name="afii62834" unicode="&#xfedf;&#xfe82;" horiz-adv-x="1115" arabic-form="isolated" 
d="M554 10q-176 0 -269.5 67t-93.5 219v925h171v-844q0 -141 38 -171q26 -25 154 -25h171q80 0 119 52l1 1v1q18 42 18 142v844h164v-925q0 -136 -77 -211t-213 -75h-183zM576 1369h-396q-75 0 -113 -38q-37 -37 -69 -98l-130 48q61 143 105 176q44 36 83 49.5t113 14.5h407
v-152z" />
    <glyph glyph-name="afii62835" unicode="&#xfee0;&#xfe82;" horiz-adv-x="1194" arabic-form="final" 
d="M352 302h-169v919h169v-919zM1005 358q0 -100 50 -137.5t163 -39.5v-171q-155 4 -251 136q-98 -136 -259 -136h-405q-126 0 -126 146q0 19 1 25h515q86 0 113.5 45.5t27.5 150.5v844h171v-863zM588 1376h-396q-75 0 -113 -38q-37 -37 -69 -98l-130 48q61 143 105 176
q44 36 83 49.5t113 14.5h407v-152z" />
    <glyph glyph-name="afii62836" unicode="&#xfedf;&#xfe84;" horiz-adv-x="1066" arabic-form="isolated" 
d="M523 10q-176 0 -269.5 67t-93.5 219v925h171v-844q0 -141 38 -171q26 -25 154 -25h171q80 0 119 52l1 1v1q18 42 18 142v844h164v-925q0 -136 -77 -211t-213 -75h-183zM192 1566q0 -33 27 -50t65 -17h1q44 0 146 40l29 -69l-364 -132l-20 65l94 36q-58 54 -58 100
q0 71 53 125t122 56q56 0 106 -44l-43 -63q-29 26 -70 26q-36 0 -62 -20t-26 -53z" />
    <glyph glyph-name="afii62837" unicode="&#xfee0;&#xfe84;" horiz-adv-x="1185" arabic-form="final" 
d="M343 302h-169v919h169v-919zM996 358q0 -100 50 -137.5t163 -39.5v-171q-155 4 -251 136q-98 -136 -259 -136h-405q-126 0 -126 146q0 19 1 25h515q86 0 113.5 45.5t27.5 150.5v844h171v-863zM176 1578q0 -33 27 -50t65 -17h1q44 0 146 40l29 -69l-364 -132l-20 65l94 36
q-58 54 -58 100q0 71 53 125t122 56q56 0 106 -44l-43 -63q-29 26 -70 26q-36 0 -62 -20t-26 -53z" />
    <glyph glyph-name="afii62838" unicode="&#xfedf;&#xfe88;" horiz-adv-x="1065" arabic-form="isolated" 
d="M224 -304q0 -33 27 -50t65 -17h1q44 0 146 40l29 -69l-364 -132l-20 65l94 36q-58 54 -58 100q0 71 53 125t122 56q56 0 106 -44l-43 -63q-29 26 -70 26q-36 0 -62 -20t-26 -53zM510 10q-176 0 -269.5 67t-93.5 219v925h171v-844q0 -141 38 -171q26 -25 154 -25h171
q80 0 119 52l1 1v1q18 42 18 142v844h164v-925q0 -136 -77 -211t-213 -75h-183z" />
    <glyph glyph-name="afii62839" unicode="&#xfee0;&#xfe88;" horiz-adv-x="1167" arabic-form="final" 
d="M325 302h-169v919h169v-919zM978 358q0 -100 50 -137.5t163 -39.5v-171q-155 4 -251 136q-98 -136 -259 -136h-405q-126 0 -126 146q0 19 1 25h515q86 0 113.5 45.5t27.5 150.5v844h171v-863zM227 -328q0 -33 27 -50t65 -17h1q44 0 146 40l29 -69l-364 -132l-20 65l94 36
q-58 54 -58 100q0 71 53 125t122 56q56 0 106 -44l-43 -63q-29 26 -70 26q-36 0 -62 -20t-26 -53z" />
    <glyph glyph-name="afii62840" unicode="&#xfedf;&#xfe8e;" horiz-adv-x="1071" arabic-form="isolated" 
d="M510 10q-176 0 -269.5 67t-93.5 219v925h171v-844q0 -141 38 -171q26 -25 154 -25h171q80 0 119 52l1 1v1q18 42 18 142v844h164v-925q0 -136 -77 -211t-213 -75h-183z" />
    <glyph glyph-name="afii62841" unicode="&#xfee0;&#xfe8e;" horiz-adv-x="1122" arabic-form="final" 
d="M280 302h-169v919h169v-919zM933 358q0 -100 50 -137.5t163 -39.5v-171q-155 4 -251 136q-98 -136 -259 -136h-405q-126 0 -126 146q0 19 1 25h515q86 0 113.5 45.5t27.5 150.5v844h171v-863z" />
    <glyph glyph-name="uni0675.fina" unicode="&#x675;" horiz-adv-x="550" 
d="M353 377q0 -44 2 -68t9 -51.5t23.5 -43t43.5 -22.5q17 -4 34 -6.5t27.5 -3t36 -1t40.5 -0.5v-171q-238 1 -325 91q-63 67 -63 195v898h172v-817zM210 1539q0 -33 27 -50t65 -17h1q44 0 146 40l29 -69l-364 -132l-20 65l94 36q-58 54 -58 100q0 71 53 125t122 56
q56 0 106 -44l-43 -63q-29 26 -70 26q-36 0 -62 -20t-26 -53z" />
    <glyph glyph-name="uni0676.fina" unicode="&#x676;" horiz-adv-x="951" 
d="M650 10q-96 0 -167.5 9.5t-134 33.5t-101.5 64t-61 103.5t-22 149.5q0 229 113 329q72 57 221 57q214 0 296 -178q47 -112 47 -387v-10h130v-171h-130v-10q0 -136 -65 -241.5t-169 -166.5q-114 -67 -249 -67h-238l-26 168h233q147 0 240 93t93 214v10h-10zM669 375
q0 93 -48 152.5t-134 59.5q-148 0 -148 -207q0 -118 65 -160q62 -39 254 -39h11v194zM425 1159q0 -33 27 -50t65 -17h1q44 0 146 40l29 -69l-364 -132l-20 65l94 36q-58 54 -58 100q0 71 53 125t122 56q56 0 106 -44l-43 -63q-29 26 -70 26q-36 0 -62 -20t-26 -53z" />
    <glyph glyph-name="uni0678.fina" unicode="&#x678;" horiz-adv-x="1373" 
d="M1394 10h-177l9 -103q0 -159 -127 -271q-123 -111 -282 -111h-298q-213 0 -349 163q-115 155 -115 381v331h174v-408q0 -104 72 -194v-1h1q96 -104 261 -104h245q98 0 173 57q73 57 73 168q0 62 -97 78q-80 14 -298 14l-14 171h749v-171zM368 870q0 -33 27 -50t65 -17h1
q44 0 146 40l29 -69l-364 -132l-20 65l94 36q-58 54 -58 100q0 71 53 125t122 56q56 0 106 -44l-43 -63q-29 26 -70 26q-36 0 -62 -20t-26 -53z" />
    <glyph glyph-name="afii57459" unicode="&#x6a1;" horiz-adv-x="894" 
d="M649 514q0 92 -50 157t-134 65q-59 0 -101.5 -28.5t-42.5 -79.5q0 -95 59 -112q20 -12 130 -12h139v10zM831 320q0 -161 -109 -241q-88 -69 -180 -69h-566v171h569q119 0 119 154v10h-11q-262 0 -337 18q-152 64 -152 252q0 141 93 220q96 81 225 81t228 -93
q118 -103 118 -281z" />
    <glyph glyph-name="afii57374" unicode="&#x6a1;" horiz-adv-x="912" 
d="M445 592q-58 0 -111 -50.5t-53 -107.5q0 -121 200 -211l5 -4q63 51 95 97t32 95q0 63 -53.5 122t-114.5 59zM121 448q0 136 93.5 222t233.5 86q152 0 237 -102q79 -98 79 -228q0 -131 -75 -245h265v-169l-51 4h-51l-136 3q-74 0 -150 13l-90 31q-70 -53 -535 -53v171h297
l-14 16q-103 121 -103 251z" />
    <glyph glyph-name="afii52258" unicode="&#x6a1;" horiz-adv-x="1725" 
d="M1473 411q0 64 -51.5 122.5t-111.5 58.5q-61 0 -116.5 -48t-55.5 -107q0 -117 204 -214l5 -3l4 4q122 75 122 187zM261 341q0 -77 39.5 -118.5t114.5 -41.5h686l-14 16q-103 121 -103 246q0 126 88 220q87 93 233 93q143 0 236 -103q83 -100 83 -226q0 -132 -75 -246h192
v-171q-316 0 -407 47q-7 -10 -19 -16.5t-32.5 -10t-33.5 -5t-44.5 -3.5t-42.5 -3q-68 -5 -189 -5l-638 -4q-104 0 -182 104q-61 94 -61 199v280h169v-252z" />
    <glyph glyph-name="uniFB51" unicode="&#x671;" horiz-adv-x="550" arabic-form="final" 
d="M353 377q0 -44 2 -68t9 -51.5t23.5 -43t43.5 -22.5q17 -4 34 -6.5t27.5 -3t36 -1t40.5 -0.5v-171q-238 1 -325 91q-63 67 -63 195v898h172v-817zM353 1388q-3 50 -42 50q-17 0 -46 -19l-83 -73h171v42zM311 1479q44 0 62.5 -25.5t20.5 -76.5l-1 -72h-315v41h51l120 104
q35 29 62 29z" />
    <glyph glyph-name="afii62958" unicode="&#x67e;" horiz-adv-x="1824" arabic-form="final" 
d="M269 341q0 -89 32.5 -124.5t118.5 -35.5h891q85 0 112 21h1q42 36 42 139v252h173v-252q0 -91 51.5 -124.5t158.5 -35.5v-171l-108 6l-81 11q-64 19 -104 65q-95 -82 -185 -82h-1010q-72 0 -133.5 44.5t-96 114.5t-34.5 144v280h172v-252zM1034 -191q47 0 83.5 -36
t36.5 -82q0 -48 -36 -83.5t-84 -35.5t-83 35.5t-35 83.5q0 47 35 82.5t83 35.5zM843 -309q0 -47 -36.5 -83t-82.5 -36q-48 0 -82.5 35t-34.5 84q0 47 35 82.5t82 35.5t83 -35.5t36 -82.5zM991 -601q0 -47 -36.5 -83t-82.5 -36q-48 0 -82.5 35t-34.5 84q0 47 35.5 83t81.5 36
t82.5 -36t36.5 -83z" />
    <glyph glyph-name="afii62956" unicode="&#x67e;" horiz-adv-x="623" arabic-form="initial" 
d="M546 313q0 -115 -81 -209t-190 -94h-300v171h240q101 0 138 52v1h1q15 26 15 107v252h177v-280zM480 -193q47 0 83.5 -36t36.5 -82q0 -48 -36 -83.5t-84 -35.5t-83 35.5t-35 83.5q0 47 35 82.5t83 35.5zM289 -311q0 -47 -36.5 -83t-82.5 -36q-48 0 -82.5 35t-34.5 84
q0 47 35 82.5t82 35.5t83 -35.5t36 -82.5zM437 -603q0 -47 -36.5 -83t-82.5 -36q-48 0 -82.5 35t-34.5 84q0 47 35.5 83t81.5 36t82.5 -36t36.5 -83z" />
    <glyph glyph-name="afii52957" unicode="&#x67e;" horiz-adv-x="785" arabic-form="medial" 
d="M315 181q87 0 118.5 34.5t31.5 125.5v252h174v-252q0 -96 36.5 -127t139.5 -33v-171l-102 4l-55 8l-42 21l-60 48q-98 -81 -184 -81h-401v171h344zM580 -184q47 0 83.5 -36t36.5 -82q0 -48 -36 -83.5t-84 -35.5t-83 35.5t-35 83.5q0 47 35 82.5t83 35.5zM389 -302
q0 -46 -36.5 -82.5t-82.5 -36.5q-48 0 -82.5 35t-34.5 84q0 47 35 82.5t82 35.5t83 -35.5t36 -82.5zM537 -594q0 -46 -36.5 -82.5t-82.5 -36.5q-48 0 -82.5 35t-34.5 84q0 47 35.5 83t81.5 36t82.5 -36.5t36.5 -82.5z" />
    <glyph glyph-name="afii62961" unicode="&#x686;" horiz-adv-x="1270" arabic-form="final" 
d="M1310 10q-128 2 -203 29t-108 99l-29 105l-389 -217q-260 -147 -260 -367q0 -158 131 -281q131 -122 277 -122h551l14 -175h-515q-296 0 -483 214q-136 167 -136 370v39l4 42q27 262 271 389l601 329q-51 93 -141 111q-79 15 -504 15l-25 166h451q187 0 289 -97t103 -281
l-177 -101q9 -63 86 -81q66 -15 192 -15v-171zM991 -120q47 0 83.5 -36t36.5 -82q0 -48 -36 -83.5t-84 -35.5t-83 35.5t-35 83.5q0 47 35 82.5t83 35.5zM800 -238q0 -46 -36 -82.5t-83 -36.5q-48 0 -82.5 35t-34.5 84q0 47 35 82.5t82 35.5t83 -35.5t36 -82.5zM948 -530
q0 -46 -36 -82.5t-83 -36.5q-48 0 -82.5 35t-34.5 84q0 47 35.5 83t81.5 36q47 0 83 -36.5t36 -82.5z" />
    <glyph glyph-name="afii62959" unicode="&#x686;" horiz-adv-x="1099" arabic-form="initial" 
d="M1051 378l-436 -247q-141 -80 -266 -101q-120 -20 -383 -20v171h142q112 0 148 10q121 14 228 62q71 30 191 104l190 104q-30 86 -143 114q-87 15 -489 15l-25 166h462q192 0 285.5 -93.5t95.5 -284.5zM752 -171q47 0 83.5 -36t36.5 -82q0 -48 -36 -83.5t-84 -35.5
t-83 35.5t-35 83.5q0 47 35 82.5t83 35.5zM561 -289q0 -47 -36.5 -83t-82.5 -36q-48 0 -82.5 35t-34.5 84q0 47 35 82.5t82 35.5t83 -35.5t36 -82.5zM709 -581q0 -47 -36.5 -83t-82.5 -36q-48 0 -82.5 35t-34.5 84q0 47 35.5 83t81.5 36t82.5 -36t36.5 -83z" />
    <glyph glyph-name="afii62960" unicode="&#x686;" horiz-adv-x="1099" arabic-form="medial" 
d="M1120 10q-144 1 -211 35q-40 19 -73 86l-25 113q-180 -119 -396 -199q-134 -35 -449 -35v171h142q112 0 148 10q121 14 228 62q71 30 191 104l190 104q-30 86 -143 114q-87 15 -489 15l-25 166h462q184 0 281.5 -98t99.5 -282l-178 -98v-6q0 -90 247 -91v-171zM730 -171
q47 0 83.5 -36t36.5 -82q0 -48 -36 -83.5t-84 -35.5t-83 35.5t-35 83.5q0 47 35 82.5t83 35.5zM539 -289q0 -47 -36.5 -83t-82.5 -36q-48 0 -82.5 35t-34.5 84q0 47 35 82.5t82 35.5t83 -35.5t36 -82.5zM687 -581q0 -47 -36.5 -83t-82.5 -36q-48 0 -82.5 35t-34.5 84
q0 47 35.5 83t81.5 36t82.5 -36t36.5 -83z" />
    <glyph glyph-name="afii62962" unicode="&#x698;" horiz-adv-x="976" arabic-form="final" 
d="M998 10q-128 3 -186 88l-19 28v-35q0 -259 -147 -430q-136 -136 -328 -136h-239l-31 168h252q121 0 222 83q100 85 100 210v607h168v-266q0 -143 208 -146v-171zM756 1036q47 0 83.5 -36.5t36.5 -82.5q0 -48 -36 -83t-84 -35t-83 35t-35 83q0 47 35.5 83t82.5 36z
M565 917q0 -47 -36 -82.5t-83 -35.5q-48 0 -82.5 35t-34.5 83q0 47 35.5 83t81.5 36t82.5 -36t36.5 -83zM713 1209q0 -47 -36.5 -83t-82.5 -36q-47 0 -82 35.5t-35 83.5q0 47 35.5 83t81.5 36t82.5 -36t36.5 -83z" />
    <glyph glyph-name="afii62964" unicode="&#x6a9;" horiz-adv-x="1876" arabic-form="final" 
d="M1916 10q-202 3 -308 148q-27 -75 -86 -111.5t-159 -36.5h-1008q-111 0 -187 92t-76 211v280h173v-252q0 -91 32.5 -125.5t120.5 -34.5h934q106 0 106 80q0 43 -46 96l-468 522l-32 176l720 277l26 -153l-565 -210l535 -605l139 -140q63 -42 149 -43v-171z" />
    <glyph glyph-name="afii52305" unicode="&#x6a9;" horiz-adv-x="898" arabic-form="initial" 
d="M758 407q53 -65 53 -149q0 -86 -72 -169q-79 -79 -225 -79h-548v171h548q120 0 120 81q0 37 -38 89l-505 528l-35 190l750 270l20 -164l-569 -211z" />
    <glyph glyph-name="afii52306" unicode="&#x6a9;" horiz-adv-x="1103" arabic-form="medial" 
d="M784 175q-20 -49 -35.5 -75.5t-42 -49.5t-65 -31.5t-96.5 -8.5h-564v171h543q110 0 110 81q0 42 -46 95l-479 521l-28 205l739 263l27 -171l-573 -211l544 -600q113 -126 170 -162l1 -1l52 -16l72 -3v-172q-221 3 -318 150z" />
    <glyph glyph-name="afii62967" unicode="&#x6af;" horiz-adv-x="1876" arabic-form="final" 
d="M1916 10q-202 3 -308 148q-27 -75 -86 -111.5t-159 -36.5h-1008q-111 0 -187 92t-76 211v280h173v-252q0 -91 32.5 -125.5t120.5 -34.5h934q106 0 106 80q0 43 -46 96l-468 522l-32 185l720 268l26 -153l-565 -210l535 -605l139 -140q63 -42 149 -43v-171zM1617 1454
l-725 -277l-14 87l735 273z" />
    <glyph glyph-name="afii62965" unicode="&#x6af;" horiz-adv-x="873" arabic-form="initial" 
d="M772 1478l-710 -256l-6 78l714 252zM758 407q53 -65 53 -149q0 -86 -72 -169q-79 -79 -225 -79h-548v171h548q120 0 120 81q0 37 -38 89l-505 528l-36 204l749 262l22 -170l-569 -211z" />
    <glyph glyph-name="afii62966" unicode="&#x6af;" horiz-adv-x="1099" arabic-form="medial" 
d="M789 1471l-703 -256l-9 61l706 252zM784 175q-20 -49 -35.5 -75.5t-42 -49.5t-65 -31.5t-96.5 -8.5h-564v171h543q110 0 110 81q0 42 -46 95l-479 521l-28 205l739 263l27 -171l-573 -211l544 -600q113 -126 170 -162l1 -1l52 -16l72 -3v-172q-221 3 -318 150z" />
    <glyph glyph-name="uniFBA4" unicode="&#x6c0;" horiz-adv-x="863" arabic-form="isolated" 
d="M442 151q75 0 129.5 53t54.5 126q0 66 -30 103l-164 172q-103 -103 -148 -162l-2 -1l-21 -42l-13 -67v-1q0 -39 44 -110v-3q59 -68 150 -68zM709 555q88 -110 88 -234q0 -126 -107 -230t-251 -104q-147 0 -249 106q-102 107 -102 253q0 103 61 207l60 76l102 99l-57 67
l116 116zM331 1292q0 -33 27 -50t65 -17h1q44 0 146 40l29 -69l-364 -132l-20 65l94 36q-58 54 -58 100q0 71 53 125t122 56q56 0 106 -44l-43 -63q-29 26 -70 26q-36 0 -62 -20t-26 -53z" />
    <glyph glyph-name="uniFBA5" unicode="&#x6c0;" horiz-adv-x="1186" arabic-form="final" 
d="M492 151q72 0 133 54t61 123q0 57 -36 114l-81 81q-20 20 -47 47.5t-34 34.5l-7 -8q-109 -100 -141 -152q-33 -53 -33 -109q0 -58 46 -119q48 -66 139 -66zM839 224q-109 -237 -350 -237q-144 0 -250 104q-105 103 -105 255q0 100 72 207q31 49 157 175l-56 66l117 117
l567 -603q80 -83 108 -106h1l1 -1q39 -18 117 -20v-171q-136 1 -169 34h-1q-16 6 -209 180zM382 1260q0 -33 27 -50t65 -17h1q44 0 146 40l29 -69l-364 -132l-20 65l94 36q-58 54 -58 100q0 71 53 125t122 56q56 0 106 -44l-43 -63q-29 26 -70 26q-36 0 -62 -20t-26 -53z
" />
    <glyph glyph-name="uniFBA6" unicode="&#x6c1;" horiz-adv-x="491" arabic-form="isolated" 
d="M452 151q75 0 129.5 53t54.5 126q0 66 -30 103l-164 172q-103 -103 -148 -162l-2 -1l-21 -42l-13 -67v-1q0 -39 44 -110v-3q59 -68 150 -68zM719 555q88 -110 88 -234q0 -126 -107 -230t-251 -104q-147 0 -249 106q-102 107 -102 253q0 103 61 207l60 76l102 99l-57 67
l116 116z" />
    <glyph glyph-name="afii62827" unicode="&#x6be;" horiz-adv-x="851" arabic-form="final" 
d="M554 289q-3 -57 -18 -89.5t-59 -91.5l15 -14q92 87 184 87h194v-171h-136q-78 0 -137.5 -46t-59.5 -117v-1l3 -31l43 -188l-165 -50l-49 237l-4 38q0 98 91 203l-16 14q-68 -59 -169 -59h-322v171h261q94 0 148 54q23 29 38 113l32 199l172 -30l-46 -227v-1z" />
    <glyph glyph-name="uniFBE5" unicode="&#x6d0;" horiz-adv-x="1029" arabic-form="final" 
d="M1394 10h-177l9 -103q0 -159 -127 -271q-123 -111 -282 -111h-298q-213 0 -349 163q-115 155 -115 381v331h174v-408q0 -104 72 -194v-1h1q96 -104 261 -104h245q98 0 173 57q73 57 73 168q0 62 -97 78q-80 14 -298 14l-14 171h749v-171z" />
    <glyph glyph-name="afii52364" unicode="&#x6cc;" horiz-adv-x="1373" arabic-form="final" 
d="M1394 10h-177l9 -103q0 -159 -127 -271q-123 -111 -282 -111h-298q-213 0 -349 163q-115 155 -115 381v331h174v-408q0 -104 72 -194v-1h1q96 -104 261 -104h245q98 0 173 57q73 57 73 168q0 62 -97 78q-80 14 -298 14l-14 171h749v-171z" />
    <glyph glyph-name="uniFBFE" unicode="&#x6cc;" horiz-adv-x="623" arabic-form="initial" 
d="M546 313q0 -115 -81 -209t-190 -94h-300v171h240q101 0 138 52v1h1q15 26 15 107v252h177v-280zM164 -194q46 0 82.5 -36t36.5 -83q0 -41 -33.5 -79t-72.5 -38q-62 0 -96.5 34t-34.5 97q0 37 39 71t79 34zM457 -194q47 0 83.5 -36.5t36.5 -82.5q0 -41 -33.5 -79
t-72.5 -38q-63 0 -97.5 34t-34.5 97q0 39 38.5 72t79.5 33z" />
    <glyph glyph-name="afii62832" unicode="&#x6cc;" horiz-adv-x="785" arabic-form="medial" 
d="M315 181q87 0 118.5 34.5t31.5 125.5v252h174v-252q0 -96 36.5 -127t139.5 -33v-171l-102 4l-55 8l-42 21l-60 48q-98 -81 -184 -81h-401v171h344zM238 -190q46 0 82.5 -36t36.5 -83q0 -41 -33.5 -79t-72.5 -38q-62 0 -96.5 34t-34.5 97q0 37 39 71t79 34zM531 -190
q47 0 83.5 -36.5t36.5 -82.5q0 -41 -33.5 -79t-72.5 -38q-63 0 -97.5 34t-34.5 97q0 39 38.5 72t79.5 33z" />
    <glyph glyph-name="uniFC5D" unicode="&#xfc5d;" horiz-adv-x="1373" arabic-form="isolated" 
d="M692 350q0 132 97.5 232t228.5 100h224l9 -157h-225q-102 0 -152 -101l-1 -1q-24 -86 -24 -221v-11h11q253 0 344 -44q97 -52 97 -209q0 -124 -36 -196l-1 -1q-21 -83 -105 -162q-134 -128 -321 -128h-296q-179 0 -314 147q-131 143 -131 340v383h159v-408
q0 -131 115 -228q95 -67 209 -67h250q103 0 199 69q105 90 105 192q0 105 -80 131q-78 24 -362 24v316zM473 628h-67v275h67v-275z" />
    <glyph glyph-name="afii62882" unicode="&#xfc5e;" arabic-form="isolated" 
d="M-86 80q52 0 52 40v103h60v-103q0 -44 58 -44h10q39 2 39 37v110h63v-99q-3 -52 -19 -68h-1q-30 -35 -77 -35h-5q-52 0 -96 44q-14 -26 -33 -37t-55 -11q-112 0 -112 107v99h60v-104q4 -39 56 -39zM-75 675q0 62 41 106t102 44q57 0 100 -41t43 -97v-7q0 -104 -77 -154
l-333 -188l-40 66q18 10 57 36q29 19 29 49q0 37 -43 40h-7q-39 0 -90 -10l-9 68q41 7 80 7q66 0 96 -25.5t33 -85.5l107 65q-44 23 -66.5 51t-22.5 76zM140 676q0 29 -22 51t-50 22q-30 0 -51 -21.5t-21 -51.5q0 -29 21.5 -50t50.5 -21q30 0 51 20.5t21 50.5z" />
    <glyph glyph-name="afii62883" unicode="&#xfc5f;" arabic-form="isolated" 
d="M-84 437q52 0 52 40v103h60v-103q0 -44 58 -44h10q39 1 39 37v110h63v-99q-3 -52 -19 -68h-1q-30 -35 -77 -35h-5q-52 0 -96 44q-14 -26 -33 -37t-55 -11q-112 0 -112 107v99h60v-104q4 -39 56 -39zM-234 61l437 114v-61l-437 -111v58zM-234 213l437 113v-61l-437 -111
v59z" />
    <glyph glyph-name="afii62884" unicode="&#xfc60;" arabic-form="isolated" 
d="M-86 80q52 0 52 40v103h60v-103q0 -44 58 -44h10q39 2 39 37v110h63v-99q-3 -52 -19 -68h-1q-30 -35 -77 -35h-5q-52 0 -96 44q-14 -26 -33 -37t-55 -11q-112 0 -112 107v99h60v-104q4 -39 56 -39zM-237 415l437 113v-61l-437 -111v59z" />
    <glyph glyph-name="afii62885" unicode="&#xfc61;" arabic-form="isolated" 
d="M-86 80q52 0 52 40v103h60v-103q0 -44 58 -44h10q39 2 39 37v110h63v-99q-3 -52 -19 -68h-1q-30 -35 -77 -35h-5q-52 0 -96 44q-14 -26 -33 -37t-55 -11q-112 0 -112 107v99h60v-104q4 -39 56 -39zM-88 674q0 61 42 105.5t102 44.5q57 0 99.5 -41.5t42.5 -97.5v-6
q0 -103 -76 -154l-334 -188l-40 66l254 143l-17 9q-73 37 -73 119zM127 675q0 29 -21 50.5t-50 21.5t-51 -21.5t-22 -50.5q0 -30 21.5 -50.5t51.5 -20.5t50.5 21t20.5 50z" />
    <glyph glyph-name="afii62886" unicode="&#xfc62;" arabic-form="isolated" 
d="M-81 389q52 0 52 40v103h60v-103q0 -44 58 -44h10q39 1 39 37v110h63v-99q-3 -52 -19 -68h-1q-30 -35 -77 -35h-5q-52 0 -96 44q-14 -26 -33 -37t-55 -11q-112 0 -112 107v99h60v-104q5 -39 56 -39zM-224 75l437 113v-61l-437 -111v59z" />
    <glyph glyph-name="uniFC63" unicode="&#xfc63;" arabic-form="isolated" 
d="M-86 80q52 0 52 40v103h60v-103q0 -44 58 -44h10q39 2 39 37v110h63v-99q-3 -52 -19 -68h-1q-30 -35 -77 -35h-5q-52 0 -96 44q-14 -26 -33 -37t-55 -11q-112 0 -112 107v99h60v-104q4 -39 56 -39zM36 322h-67v275h67v-275z" />
    <glyph glyph-name="uniFCF2" unicode="&#xfcf2;" horiz-adv-x="498" arabic-form="medial" 
d="M158 490q52 0 52 40v103h60v-103q0 -44 58 -44h10q39 2 39 37v110h63v-99q-3 -52 -19 -68h-1q-30 -35 -77 -35h-5q-52 0 -96 44q-14 -26 -33 -37t-55 -11q-112 0 -112 107v99h60v-104q4 -39 56 -39zM5 800l437 113v-61l-437 -111v59zM518 10h-531v171h531v-171z" />
    <glyph glyph-name="uniFCF3" unicode="&#xfcf3;" horiz-adv-x="498" arabic-form="medial" 
d="M159 466q52 0 52 40v103h60v-103q0 -44 58 -44h10q39 2 39 37v110h63v-99q-3 -52 -19 -68h-1q-30 -35 -77 -35h-5q-52 0 -96 44q-14 -26 -33 -37t-55 -11q-112 0 -112 107v99h60v-104q5 -39 56 -39zM178 1072q0 61 42 105.5t102 44.5q57 0 99.5 -41.5t42.5 -97.5v-6
q0 -103 -76 -154l-334 -188l-40 66l254 143l-17 9q-73 37 -73 119zM393 1073q0 29 -21 50.5t-50 21.5t-51 -21.5t-22 -50.5q0 -30 21.5 -50.5t51.5 -20.5t50.5 21t20.5 50zM518 10h-531v171h531v-171z" />
    <glyph glyph-name="uniFCF4" unicode="&#xfcf4;" horiz-adv-x="498" arabic-form="medial" 
d="M166 708q52 0 52 40v103h60v-103q0 -44 58 -44h10q39 2 39 37v110h63v-99q-3 -52 -19 -68h-1q-30 -35 -77 -35h-5q-52 0 -96 44q-14 -26 -33 -37t-55 -11q-112 0 -112 107v99h60v-104q4 -39 56 -39zM22 404l437 113v-61l-437 -111v59zM518 10h-531v171h531v-171z" />
    <glyph glyph-name="uniFE71" unicode="&#xfe71;" horiz-adv-x="498" arabic-form="medial" 
d="M38 469l437 113v-61l-437 -111v59zM38 620l437 113v-61l-437 -111v59zM518 10h-531v171h531v-171z" />
    <glyph glyph-name="uniFE77" unicode="&#xfe77;" horiz-adv-x="498" arabic-form="medial" 
d="M24 514l437 113v-61l-437 -111v59zM518 10h-531v171h531v-171z" />
    <glyph glyph-name="uniFE79" unicode="&#xfe79;" horiz-adv-x="498" arabic-form="medial" 
d="M184 802q0 61 42 105.5t102 44.5q57 0 99.5 -41.5t42.5 -97.5v-6q0 -103 -76 -154l-334 -188l-40 66l254 143l-17 9q-73 37 -73 119zM399 803q0 29 -21 50.5t-50 21.5t-51 -21.5t-22 -50.5q0 -30 21.5 -50.5t51.5 -20.5t50.5 21t20.5 50zM518 10h-531v171h531v-171z" />
    <glyph glyph-name="uniFE7B" unicode="&#xfe7b;" horiz-adv-x="498" arabic-form="medial" 
d="M27 -366l437 113v-61l-437 -111v59zM518 10h-531v171h531v-171z" />
    <glyph glyph-name="uniFE7D" unicode="&#xfe7d;" horiz-adv-x="498" arabic-form="medial" 
d="M189 590q52 0 52 40v103h60v-103q0 -44 58 -44h10q39 2 39 37v110h63v-99q-3 -52 -19 -68h-1q-30 -35 -77 -35h-5q-52 0 -96 44q-14 -26 -33 -37t-55 -11q-112 0 -112 107v99h60v-104q5 -39 56 -39zM518 10h-531v171h531v-171z" />
    <glyph glyph-name="uniFE7F" unicode="&#xfe7f;" horiz-adv-x="498" arabic-form="medial" 
d="M80 655q0 79 52 136.5t127 57.5h8q74 0 126 -58t52 -135q0 -79 -53 -135t-130 -56t-129.5 55.5t-52.5 134.5zM380 653q0 48 -34.5 85.5t-81.5 37.5q-45 0 -79.5 -38t-34.5 -85q0 -49 33.5 -85t80.5 -36q48 0 82 36.5t34 84.5zM518 10h-531v171h531v-171z" />
    <glyph glyph-name="afii52399" unicode="&#x621;" horiz-adv-x="799" arabic-form="isolated" 
d="M531 366q-36 0 -59 -22t-23 -58q0 -33 17.5 -56.5t47.5 -23.5q54 0 167 54l45 -96l-436 -183l-32 90l166 68l-18 11q-37 21 -54 54.5t-17 88.5q5 73 60.5 128t130.5 55q70 0 125 -47l-43 -91q-46 28 -77 28z" />
    <glyph glyph-name="afii62753" unicode="&#x622;" horiz-adv-x="550" arabic-form="final" 
d="M562 1350h-396q-75 0 -113 -38q-37 -37 -69 -98l-130 48q61 143 105 176q44 36 83 49.5t113 14.5h407v-152zM353 377q0 -44 2 -68t9 -51.5t23.5 -43t43.5 -22.5q17 -4 34 -6.5t27.5 -3t36 -1t40.5 -0.5v-171q-238 1 -325 91q-63 67 -63 195v898h172v-817z" />
    <glyph glyph-name="afii62754" unicode="&#x623;" horiz-adv-x="550" arabic-form="final" 
d="M201 1545q0 -33 27 -50t65 -17h1q44 0 146 40l29 -69l-364 -132l-20 65l94 36q-58 54 -58 100q0 71 53 125t122 56q56 0 106 -44l-43 -63q-29 26 -70 26q-36 0 -62 -20t-26 -53zM353 377q0 -44 2 -68t9 -51.5t23.5 -43t43.5 -22.5q17 -4 34 -6.5t27.5 -3t36 -1t40.5 -0.5
v-171q-238 1 -325 91q-63 67 -63 195v898h172v-817z" />
    <glyph glyph-name="afii62755" unicode="&#x624;" horiz-adv-x="951" arabic-form="final" 
d="M650 10q-96 0 -167.5 9.5t-134 33.5t-101.5 64t-61 103.5t-22 149.5q0 229 113 329q72 57 221 57q214 0 296 -178q47 -112 47 -387v-10h130v-171h-130v-10q0 -136 -65 -241.5t-169 -166.5q-114 -67 -249 -67h-238l-26 168h233q147 0 240 93t93 214v10h-10zM669 375
q0 93 -48 152.5t-134 59.5q-148 0 -148 -207q0 -118 65 -160q62 -39 254 -39h11v194zM390 1141q0 -33 27 -50t65 -17h1q44 0 146 40l29 -69l-364 -132l-20 65l94 36q-58 54 -58 100q0 71 53 125t122 56q56 0 106 -44l-43 -63q-29 26 -70 26q-36 0 -62 -20t-26 -53z" />
    <glyph glyph-name="afii62756" unicode="&#x625;" horiz-adv-x="550" arabic-form="final" 
d="M353 377q0 -44 2 -68t9 -51.5t23.5 -43t43.5 -22.5q17 -4 34 -6.5t27.5 -3t36 -1t40.5 -0.5v-171q-238 1 -325 91q-63 67 -63 195v898h172v-817zM224 -285q0 -33 27 -50t65 -17h1q44 0 146 40l29 -69l-364 -132l-20 65l94 36q-58 54 -58 100q0 71 53 125t122 56
q56 0 106 -44l-43 -63q-29 26 -70 26q-36 0 -62 -20t-26 -53z" />
    <glyph glyph-name="afii62759" unicode="&#x626;" horiz-adv-x="1373" arabic-form="final" 
d="M1394 10h-177l9 -103q0 -159 -127 -271q-123 -111 -282 -111h-298q-213 0 -349 163q-115 155 -115 381v331h174v-408q0 -104 72 -194v-1h1q96 -104 261 -104h245q98 0 173 57q73 57 73 168q0 62 -97 78q-80 14 -298 14l-14 171h749v-171zM462 847q0 -33 27 -50t65 -17h1
q44 0 146 40l29 -69l-364 -132l-20 65l94 36q-58 54 -58 100q0 71 53 125t122 56q56 0 106 -44l-43 -63q-29 26 -70 26q-36 0 -62 -20t-26 -53z" />
    <glyph glyph-name="afii62757" unicode="&#x626;" horiz-adv-x="623" arabic-form="initial" 
d="M546 313q0 -115 -81 -209t-190 -94h-300v171h240q101 0 138 52v1h1q15 26 15 107v252h177v-280zM302 1010q0 -33 27 -50t65 -17h1q44 0 146 40l29 -69l-364 -132l-20 65l94 36q-58 54 -58 100q0 71 53 125t122 56q56 0 106 -44l-43 -63q-29 26 -70 26q-36 0 -62 -20
t-26 -53z" />
    <glyph glyph-name="afii62758" unicode="&#x626;" horiz-adv-x="785" arabic-form="medial" 
d="M350 991q0 -33 27 -50t65 -17h1q44 0 146 40l29 -69l-364 -132l-20 65l94 36q-58 54 -58 100q0 71 53 125t122 56q56 0 106 -44l-43 -63q-29 26 -70 26q-36 0 -62 -20t-26 -53zM315 181q87 0 118.5 34.5t31.5 125.5v252h174v-252q0 -96 36.5 -127t139.5 -33v-171l-102 4
l-55 8l-42 21l-60 48q-98 -81 -184 -81h-401v171h344z" />
    <glyph glyph-name="afii57415" unicode="&#x627;" horiz-adv-x="476" arabic-form="isolated" 
d="M391 10h-171v1211h171v-1211z" />
    <glyph glyph-name="afii62760" unicode="&#x627;" horiz-adv-x="550" arabic-form="final" 
d="M353 377q0 -44 2 -68t9 -51.5t23.5 -43t43.5 -22.5q17 -4 34 -6.5t27.5 -3t36 -1t40.5 -0.5v-171q-238 1 -325 91q-63 67 -63 195v898h172v-817z" />
    <glyph glyph-name="afii62763" unicode="&#x628;" horiz-adv-x="1824" arabic-form="final" 
d="M269 341q0 -89 32.5 -124.5t118.5 -35.5h891q85 0 112 21h1q42 36 42 139v252h173v-252q0 -91 51.5 -124.5t158.5 -35.5v-171l-108 6l-81 11q-64 19 -104 65q-95 -82 -185 -82h-1010q-72 0 -133.5 44.5t-96 114.5t-34.5 144v280h172v-252zM823 -192q42 0 80.5 -33
t38.5 -72q0 -50 -30 -90.5t-75 -40.5q-64 0 -98.5 33.5t-34.5 97.5q0 37 39.5 71t79.5 34z" />
    <glyph glyph-name="afii62761" unicode="&#x628;" horiz-adv-x="623" arabic-form="initial" 
d="M328 -193q42 0 80.5 -33t38.5 -72q0 -50 -30 -90.5t-75 -40.5q-64 0 -98.5 33.5t-34.5 97.5q0 37 39.5 71t79.5 34zM546 313q0 -115 -81 -209t-190 -94h-300v171h240q101 0 138 52v1h1q15 26 15 107v252h177v-280z" />
    <glyph glyph-name="afii62762" unicode="&#x628;" horiz-adv-x="785" arabic-form="medial" 
d="M450 -197q42 0 80.5 -33t38.5 -72q0 -50 -30 -90.5t-75 -40.5q-64 0 -98.5 33.5t-34.5 97.5q0 37 39.5 71t79.5 34zM315 181q87 0 118.5 34.5t31.5 125.5v252h174v-252q0 -96 36.5 -127t139.5 -33v-171l-102 4l-55 8l-42 21l-60 48q-98 -81 -184 -81h-401v171h344z" />
    <glyph glyph-name="afii62764" unicode="&#x629;" horiz-adv-x="1186" arabic-form="final" 
d="M492 151q72 0 133 54t61 123q0 57 -36 114l-81 81q-20 20 -47 47.5t-34 34.5l-7 -8q-109 -100 -141 -152q-33 -53 -33 -109q0 -58 46 -119q48 -66 139 -66zM839 224q-109 -237 -350 -237q-144 0 -250 104q-105 103 -105 255q0 100 72 207q31 49 157 175l-56 66l117 117
l567 -603q80 -83 108 -106h1l1 -1q39 -18 117 -20v-171q-136 1 -169 34h-1q-16 6 -209 180zM236 1304q46 0 82.5 -36t36.5 -83q0 -41 -33.5 -79t-72.5 -38q-62 0 -96.5 34t-34.5 97q0 37 39 71t79 34zM529 1304q47 0 83.5 -36.5t36.5 -82.5q0 -41 -33.5 -79t-72.5 -38
q-63 0 -97.5 34t-34.5 97q0 39 38.5 72t79.5 33z" />
    <glyph glyph-name="afii62767" unicode="&#x62a;" horiz-adv-x="1824" arabic-form="final" 
d="M269 341q0 -89 32.5 -124.5t118.5 -35.5h891q85 0 112 21h1q42 36 42 139v252h173v-252q0 -91 51.5 -124.5t158.5 -35.5v-171l-108 6l-81 11q-64 19 -104 65q-95 -82 -185 -82h-1010q-72 0 -133.5 44.5t-96 114.5t-34.5 144v280h172v-252zM741 1027q47 0 83 -36.5
t36 -82.5q0 -41 -33.5 -79t-72.5 -38q-62 0 -96.5 34t-34.5 97q0 37 39 71t79 34zM1034 1027q47 0 83.5 -36.5t36.5 -82.5q0 -41 -33.5 -79t-72.5 -38q-63 0 -97.5 34t-34.5 97q0 39 38.5 72t79.5 33z" />
    <glyph glyph-name="afii62765" unicode="&#x62a;" horiz-adv-x="623" arabic-form="initial" 
d="M546 313q0 -115 -81 -209t-190 -94h-300v171h240q101 0 138 52v1h1q15 26 15 107v252h177v-280zM147 1048q47 0 83 -36t36 -83q0 -41 -33.5 -79t-72.5 -38q-62 0 -96.5 34t-34.5 97q0 37 39 71t79 34zM440 1048q47 0 83.5 -36.5t36.5 -82.5q0 -41 -33.5 -79t-72.5 -38
q-63 0 -97.5 34t-34.5 97q0 39 38.5 72t79.5 33z" />
    <glyph glyph-name="afii62766" unicode="&#x62a;" horiz-adv-x="785" arabic-form="medial" 
d="M315 181q87 0 118.5 34.5t31.5 125.5v252h174v-252q0 -96 36.5 -127t139.5 -33v-171l-102 4l-55 8l-42 21l-60 48q-98 -81 -184 -81h-401v171h344zM213 1027q47 0 83 -36.5t36 -82.5q0 -41 -33.5 -79t-72.5 -38q-62 0 -96.5 34t-34.5 97q0 37 39 71t79 34zM506 1027
q47 0 83.5 -36.5t36.5 -82.5q0 -41 -33.5 -79t-72.5 -38q-63 0 -97.5 34t-34.5 97q0 39 38.5 72t79.5 33z" />
    <glyph glyph-name="afii62770" unicode="&#x62b;" horiz-adv-x="1824" arabic-form="final" 
d="M269 341q0 -89 32.5 -124.5t118.5 -35.5h891q85 0 112 21h1q42 36 42 139v252h173v-252q0 -91 51.5 -124.5t158.5 -35.5v-171l-108 6l-81 11q-64 19 -104 65q-95 -82 -185 -82h-1010q-72 0 -133.5 44.5t-96 114.5t-34.5 144v280h172v-252zM1022 1025q47 0 83.5 -36.5
t36.5 -82.5q0 -48 -36 -83t-84 -35t-83 35t-35 83q0 47 35.5 83t82.5 36zM831 906q0 -47 -36 -82.5t-83 -35.5q-48 0 -82.5 35t-34.5 83q0 47 35.5 83t81.5 36t82.5 -36.5t36.5 -82.5zM979 1198q0 -46 -36.5 -82.5t-82.5 -36.5q-47 0 -82 35.5t-35 83.5q0 47 35.5 83
t81.5 36t82.5 -36.5t36.5 -82.5z" />
    <glyph glyph-name="afii62768" unicode="&#x62b;" horiz-adv-x="623" arabic-form="initial" 
d="M546 313q0 -115 -81 -209t-190 -94h-300v171h240q101 0 138 52v1h1q15 26 15 107v252h177v-280zM440 1046q47 0 83.5 -36.5t36.5 -82.5q0 -48 -36 -83t-84 -35t-83 35t-35 83q0 47 35.5 83t82.5 36zM249 927q0 -47 -36 -82.5t-83 -35.5q-48 0 -82.5 35t-34.5 83
q0 47 35.5 83t81.5 36t82.5 -36t36.5 -83zM397 1219q0 -47 -36.5 -83t-82.5 -36q-47 0 -82 35.5t-35 83.5q0 47 35.5 83t81.5 36t82.5 -36t36.5 -83z" />
    <glyph glyph-name="afii62769" unicode="&#x62b;" horiz-adv-x="785" arabic-form="medial" 
d="M315 181q87 0 118.5 34.5t31.5 125.5v252h174v-252q0 -96 36.5 -127t139.5 -33v-171l-102 4l-55 8l-42 21l-60 48q-98 -81 -184 -81h-401v171h344zM577 1025q47 0 83.5 -36.5t36.5 -82.5q0 -48 -36 -83t-84 -35t-83 35t-35 83q0 47 35.5 83t82.5 36zM386 906
q0 -47 -36 -82.5t-83 -35.5q-48 0 -82.5 35t-34.5 83q0 47 35.5 83t81.5 36q47 0 83 -36.5t36 -82.5zM534 1198q0 -46 -36 -82.5t-83 -36.5t-82 35.5t-35 83.5q0 47 35.5 83t81.5 36q47 0 83 -36.5t36 -82.5z" />
    <glyph glyph-name="afii62773" unicode="&#x62c;" horiz-adv-x="1270" arabic-form="final" 
d="M806 -240q42 0 80.5 -33t38.5 -72q0 -50 -30 -90.5t-75 -40.5q-64 0 -98.5 33.5t-34.5 97.5q0 37 39.5 71t79.5 34zM1310 10q-128 2 -203 29t-108 99l-29 105l-389 -217q-260 -147 -260 -367q0 -158 131 -281q131 -122 277 -122h551l14 -175h-515q-296 0 -483 214
q-136 167 -136 370v39l4 42q27 262 271 389l601 329q-51 93 -141 111q-79 15 -504 15l-25 166h451q187 0 289 -97t103 -281l-177 -101q9 -63 86 -81q66 -15 192 -15v-171z" />
    <glyph glyph-name="afii62771" unicode="&#x62c;" horiz-adv-x="1099" arabic-form="initial" 
d="M1051 378l-436 -247q-141 -80 -266 -101q-120 -20 -383 -20v171h142q112 0 148 10q121 14 228 62q71 30 191 104l190 104q-30 86 -143 114q-87 15 -489 15l-25 166h462q192 0 285.5 -93.5t95.5 -284.5zM680 -172q42 0 80.5 -33t38.5 -72q0 -50 -30 -90.5t-75 -40.5
q-64 0 -98.5 33.5t-34.5 97.5q0 37 39.5 71t79.5 34z" />
    <glyph glyph-name="afii62772" unicode="&#x62c;" horiz-adv-x="1099" arabic-form="medial" 
d="M1120 10q-144 1 -211 35q-40 19 -73 86l-25 113q-180 -119 -396 -199q-134 -35 -449 -35v171h142q112 0 148 10q121 14 228 62q71 30 191 104l190 104q-30 86 -143 114q-87 15 -489 15l-25 166h462q184 0 281.5 -98t99.5 -282l-178 -98v-6q0 -90 247 -91v-171zM592 -191
q42 0 80.5 -33t38.5 -72q0 -50 -30 -90.5t-75 -40.5q-64 0 -98.5 33.5t-34.5 97.5q0 37 39.5 71t79.5 34z" />
    <glyph glyph-name="afii62776" unicode="&#x62d;" horiz-adv-x="1270" arabic-form="final" 
d="M1310 10q-128 2 -203 29t-108 99l-29 105l-389 -217q-260 -147 -260 -367q0 -158 131 -281q131 -122 277 -122h551l14 -175h-515q-296 0 -483 214q-136 167 -136 370v39l4 42q27 262 271 389l601 329q-51 93 -141 111q-79 15 -504 15l-25 166h451q187 0 289 -97t103 -281
l-177 -101q9 -63 86 -81q66 -15 192 -15v-171z" />
    <glyph glyph-name="afii62774" unicode="&#x62d;" horiz-adv-x="1099" arabic-form="initial" 
d="M1051 378l-436 -247q-141 -80 -266 -101q-120 -20 -383 -20v171h142q112 0 148 10q121 14 228 62q71 30 191 104l190 104q-30 86 -143 114q-87 15 -489 15l-25 166h462q192 0 285.5 -93.5t95.5 -284.5z" />
    <glyph glyph-name="afii62775" unicode="&#x62d;" horiz-adv-x="1099" arabic-form="medial" 
d="M1120 10q-144 1 -211 35q-40 19 -73 86l-25 113q-180 -119 -396 -199q-134 -35 -449 -35v171h142q112 0 148 10q121 14 228 62q71 30 191 104l190 104q-30 86 -143 114q-87 15 -489 15l-25 166h462q184 0 281.5 -98t99.5 -282l-178 -98v-6q0 -90 247 -91v-171z" />
    <glyph glyph-name="afii62779" unicode="&#x62e;" horiz-adv-x="1270" arabic-form="final" 
d="M1310 10q-128 2 -203 29t-108 99l-29 105l-389 -217q-260 -147 -260 -367q0 -158 131 -281q131 -122 277 -122h551l14 -175h-515q-296 0 -483 214q-136 167 -136 370v39l4 42q27 262 271 389l601 329q-51 93 -141 111q-79 15 -504 15l-25 166h451q187 0 289 -97t103 -281
l-177 -101q9 -63 86 -81q66 -15 192 -15v-171zM696 1188q42 0 80.5 -33t38.5 -72q0 -50 -30 -90.5t-75 -40.5q-64 0 -98.5 33.5t-34.5 97.5q0 37 39.5 71t79.5 34z" />
    <glyph glyph-name="afii62777" unicode="&#x62e;" horiz-adv-x="1099" arabic-form="initial" 
d="M1051 378l-436 -247q-141 -80 -266 -101q-120 -20 -383 -20v171h142q112 0 148 10q121 14 228 62q71 30 191 104l190 104q-30 86 -143 114q-87 15 -489 15l-25 166h462q192 0 285.5 -93.5t95.5 -284.5zM512 1187q42 0 80.5 -33t38.5 -72q0 -50 -30 -90.5t-75 -40.5
q-64 0 -98.5 33.5t-34.5 97.5q0 37 39.5 71t79.5 34z" />
    <glyph glyph-name="afii62778" unicode="&#x62e;" horiz-adv-x="1099" arabic-form="medial" 
d="M1120 10q-144 1 -211 35q-40 19 -73 86l-25 113q-180 -119 -396 -199q-134 -35 -449 -35v171h142q112 0 148 10q121 14 228 62q71 30 191 104l190 104q-30 86 -143 114q-87 15 -489 15l-25 166h462q184 0 281.5 -98t99.5 -282l-178 -98v-6q0 -90 247 -91v-171zM529 1165
q42 0 80.5 -33t38.5 -72q0 -50 -30 -90.5t-75 -40.5q-64 0 -98.5 33.5t-34.5 97.5q0 37 39.5 71t79.5 34z" />
    <glyph glyph-name="afii62780" unicode="&#x62f;" horiz-adv-x="1317" arabic-form="final" 
d="M1248 10q-102 0 -243 141q-29 -51 -85 -103q-61 -38 -172 -38h-581l-24 171h594q120 0 120 81q0 48 -37 82l-422 451l113 116l571 -603q94 -97 122 -110q31 -16 125 -17v-171h-81z" />
    <glyph glyph-name="afii62781" unicode="&#x630;" horiz-adv-x="1317" arabic-form="final" 
d="M1248 10q-102 0 -243 141q-29 -51 -85 -103q-61 -38 -172 -38h-581l-24 171h594q120 0 120 81q0 48 -37 82l-422 451l113 116l571 -603q94 -97 122 -110q31 -16 125 -17v-171h-81zM437 1296q42 0 80.5 -33t38.5 -72q0 -50 -30 -90.5t-75 -40.5q-64 0 -98.5 33.5
t-34.5 97.5q0 37 39.5 71t79.5 34z" />
    <glyph glyph-name="afii62782" unicode="&#x631;" horiz-adv-x="976" arabic-form="final" 
d="M998 10q-128 3 -186 88l-19 28v-35q0 -259 -147 -430q-136 -136 -328 -136h-239l-31 168h252q121 0 222 83q100 85 100 210v607h168v-266q0 -143 208 -146v-171z" />
    <glyph glyph-name="afii62783" unicode="&#x632;" horiz-adv-x="976" arabic-form="final" 
d="M998 10q-128 3 -186 88l-19 28v-35q0 -259 -147 -430q-136 -136 -328 -136h-239l-31 168h252q121 0 222 83q100 85 100 210v607h168v-266q0 -143 208 -146v-171zM655 1040q42 0 80.5 -33t38.5 -72q0 -50 -30 -90.5t-75 -40.5q-64 0 -98.5 33.5t-34.5 97.5q0 37 39.5 71
t79.5 34z" />
    <glyph glyph-name="afii62786" unicode="&#x633;" horiz-adv-x="2448" arabic-form="final" 
d="M1772 312q0 -65 43.5 -98t117.5 -33q155 0 155 136v276h168v-280q0 -72 75 -116h1l63 -12l80 -4v-171l-68 4q-42 2 -53 7l-1 1h-2q-105 13 -173 100q-93 -116 -252 -116q-139 0 -249 110q-109 -109 -240 -109q-72 0 -136 70l-18 20v-28q0 -242 -134 -392
q-134 -152 -328 -152h-302q-184 0 -322 144q-138 145 -138 343v388h170v-397q0 -128 93 -219t223 -91h250q136 0 226.5 88t90.5 222v590h171v-292q0 -49 47 -84.5t103 -35.5q163 0 163 119v293h176v-281z" />
    <glyph glyph-name="afii62784" unicode="&#x633;" horiz-adv-x="1549" arabic-form="initial" 
d="M1470 307q0 -137 -89.5 -215.5t-237.5 -78.5q-119 0 -246 109q-127 -107 -247 -107q-106 0 -234 105l-9 6q-46 -58 -94 -87t-128 -29h-218v171h217q80 0 115 42t35 129v241h163v-239q0 -76 42.5 -127t113.5 -51q82 0 123.5 45.5t41.5 129.5v242h165v-248q0 -76 44 -122.5
t117 -46.5q78 0 119 43t41 123v251h166v-286z" />
    <glyph glyph-name="afii62785" unicode="&#x633;" horiz-adv-x="1667" arabic-form="medial" 
d="M1372 121q-103 -117 -240 -117q-125 0 -244 119q-119 -119 -258 -119q-133 0 -219 119q-28 -36 -48.5 -57t-60 -40t-86.5 -19h-1l-257 3v171h169q110 0 151.5 36t41.5 141v235h167v-233q0 -69 42 -126.5t102 -57.5q171 0 171 175v242h169v-239q0 -68 48.5 -123t112.5 -55
q79 0 118.5 45.5t39.5 129.5v242h171v-286q0 -97 139 -122h1l79 -4v-171l-68 4q-149 6 -240 107z" />
    <glyph glyph-name="afii62789" unicode="&#x634;" horiz-adv-x="2448" arabic-form="final" 
d="M1772 312q0 -65 43.5 -98t117.5 -33q155 0 155 136v276h168v-280q0 -72 75 -116h1l63 -12l80 -4v-171l-68 4q-42 2 -53 7l-1 1h-2q-105 13 -173 100q-93 -116 -252 -116q-139 0 -249 110q-109 -109 -240 -109q-72 0 -136 70l-18 20v-28q0 -242 -134 -392
q-134 -152 -328 -152h-302q-184 0 -322 144q-138 145 -138 343v388h170v-397q0 -128 93 -219t223 -91h250q136 0 226.5 88t90.5 222v590h171v-292q0 -49 47 -84.5t103 -35.5q163 0 163 119v293h176v-281zM1852 1038q47 0 83.5 -36.5t36.5 -82.5q0 -48 -36 -83t-84 -35
t-83 35t-35 83q0 47 35.5 83t82.5 36zM1661 919q0 -47 -36 -82.5t-83 -35.5q-48 0 -82.5 35t-34.5 83q0 47 35.5 83t81.5 36t82.5 -36t36.5 -83zM1809 1211q0 -47 -36.5 -83t-82.5 -36q-47 0 -82 35.5t-35 83.5q0 47 35.5 83t81.5 36t82.5 -36t36.5 -83z" />
    <glyph glyph-name="afii62787" unicode="&#x634;" horiz-adv-x="1549" arabic-form="initial" 
d="M1470 307q0 -137 -89.5 -215.5t-237.5 -78.5q-119 0 -246 109q-127 -107 -247 -107q-106 0 -234 105l-9 6q-46 -58 -94 -87t-128 -29h-218v171h217q80 0 115 42t35 129v241h163v-239q0 -76 42.5 -127t113.5 -51q82 0 123.5 45.5t41.5 129.5v242h165v-248q0 -76 44 -122.5
t117 -46.5q78 0 119 43t41 123v251h166v-286zM1110 1048q47 0 83.5 -36.5t36.5 -82.5q0 -48 -36 -83t-84 -35t-83 35t-35 83q0 47 35.5 83t82.5 36zM919 929q0 -47 -36 -82.5t-83 -35.5q-48 0 -82.5 35t-34.5 83q0 47 35.5 83t81.5 36t82.5 -36t36.5 -83zM1067 1221
q0 -47 -36.5 -83t-82.5 -36q-47 0 -82 35.5t-35 83.5q0 47 35.5 83t81.5 36t82.5 -36t36.5 -83z" />
    <glyph glyph-name="afii62788" unicode="&#x634;" horiz-adv-x="1667" arabic-form="medial" 
d="M1372 121q-103 -117 -240 -117q-125 0 -244 119q-119 -119 -258 -119q-133 0 -219 119q-28 -36 -48.5 -57t-60 -40t-86.5 -19h-1l-257 3v171h169q110 0 151.5 36t41.5 141v235h167v-233q0 -69 42 -126.5t102 -57.5q171 0 171 175v242h169v-239q0 -68 48.5 -123t112.5 -55
q79 0 118.5 45.5t39.5 129.5v242h171v-286q0 -97 139 -122h1l79 -4v-171l-68 4q-149 6 -240 107zM1046 1026q47 0 83.5 -36.5t36.5 -82.5q0 -48 -36 -83t-84 -35t-83 35t-35 83q0 47 35.5 83t82.5 36zM855 907q0 -47 -36 -82.5t-83 -35.5q-48 0 -82.5 35t-34.5 83
q0 47 35.5 83t81.5 36t82.5 -36t36.5 -83zM1003 1199q0 -47 -36.5 -83t-82.5 -36q-47 0 -82 35.5t-35 83.5q0 47 35.5 83t81.5 36t82.5 -36t36.5 -83z" />
    <glyph glyph-name="afii62792" unicode="&#x635;" horiz-adv-x="2401" arabic-form="final" 
d="M2050 584h-2q-98 0 -202 -125q-77 -83 -182 -278h392q115 0 115 196q0 127 -61 188q-15 10 -60 19zM239 -14q0 -113 94 -203t209 -90h271q114 0 213 101q98 100 98 192v607h171v-275q0 -137 194 -137h7l2 6q225 571 516 571q97 0 173.5 -53t116.5 -130q44 -91 44 -184
q0 -94 -35 -210h113v-171h-862q-209 0 -245 96l-20 53v-57q0 -250 -118 -411q-56 -77 -146.5 -121.5t-209.5 -44.5h-297q-196 0 -324 149q-128 155 -128 361v365h163v-414z" />
    <glyph glyph-name="afii62790" unicode="&#x635;" horiz-adv-x="1580" arabic-form="initial" 
d="M1239 584h-2q-85 0 -202 -125q-89 -97 -180 -278h390q120 0 120 196q0 123 -65 188q-14 10 -61 19zM170 181q145 0 145 154v258h168v-238q0 -174 198 -174h8l2 6q105 276 240 423q134 146 282 146q57 0 140 -45q181 -101 181 -339q0 -77 -29.5 -178t-66.5 -129
q-67 -55 -228 -55h-490q-103 0 -167 41.5t-101 121.5l-11 -13q-115 -150 -254 -150h-220v171h203z" />
    <glyph glyph-name="afii62791" unicode="&#x635;" horiz-adv-x="1667" arabic-form="medial" 
d="M1239 584h-2q-85 0 -202 -125q-89 -97 -180 -278h390q120 0 120 196q0 123 -65 188q-14 10 -61 19zM170 181q145 0 145 154v258h168v-238q0 -174 198 -174h8l2 6q105 276 240 423q134 146 282 146q69 0 145 -45q176 -104 176 -339q0 -75 -29 -191h175v-171h-960
q-103 0 -167 41.5t-101 121.5l-11 -13q-115 -150 -254 -150h-220v171h203z" />
    <glyph glyph-name="afii62795" unicode="&#x636;" horiz-adv-x="2401" arabic-form="final" 
d="M2050 584h-2q-98 0 -202 -125q-77 -83 -182 -278h392q115 0 115 196q0 127 -61 188q-15 10 -60 19zM239 -14q0 -113 94 -203t209 -90h271q114 0 213 101q98 100 98 192v607h171v-275q0 -137 194 -137h7l2 6q225 571 516 571q97 0 173.5 -53t116.5 -130q44 -91 44 -184
q0 -94 -35 -210h113v-171h-862q-209 0 -245 96l-20 53v-57q0 -250 -118 -411q-56 -77 -146.5 -121.5t-209.5 -44.5h-297q-196 0 -324 149q-128 155 -128 361v365h163v-414zM1498 1124q42 0 80.5 -33t38.5 -72q0 -50 -30 -90.5t-75 -40.5q-64 0 -98.5 33.5t-34.5 97.5
q0 37 39.5 71t79.5 34z" />
    <glyph glyph-name="afii62793" unicode="&#x636;" horiz-adv-x="1580" arabic-form="initial" 
d="M1239 584h-2q-85 0 -202 -125q-89 -97 -180 -278h390q120 0 120 196q0 123 -65 188q-14 10 -61 19zM170 181q145 0 145 154v258h168v-238q0 -174 198 -174h8l2 6q105 276 240 423q134 146 282 146q57 0 140 -45q181 -101 181 -339q0 -77 -29.5 -178t-66.5 -129
q-67 -55 -228 -55h-490q-103 0 -167 41.5t-101 121.5l-11 -13q-115 -150 -254 -150h-220v171h203zM716 1165q42 0 80.5 -33t38.5 -72q0 -50 -30 -90.5t-75 -40.5q-64 0 -98.5 33.5t-34.5 97.5q0 37 39.5 71t79.5 34z" />
    <glyph glyph-name="afii62794" unicode="&#x636;" horiz-adv-x="1667" arabic-form="medial" 
d="M1239 584h-2q-85 0 -202 -125q-89 -97 -180 -278h390q120 0 120 196q0 123 -65 188q-14 10 -61 19zM170 181q145 0 145 154v258h168v-238q0 -174 198 -174h8l2 6q105 276 240 423q134 146 282 146q69 0 145 -45q176 -104 176 -339q0 -75 -29 -191h175v-171h-960
q-103 0 -167 41.5t-101 121.5l-11 -13q-115 -150 -254 -150h-220v171h203zM755 1166q42 0 80.5 -33t38.5 -72q0 -50 -30 -90.5t-75 -40.5q-64 0 -98.5 33.5t-34.5 97.5q0 37 39.5 71t79.5 34z" />
    <glyph glyph-name="afii62798" unicode="&#x637;" horiz-adv-x="1113" arabic-form="final" 
d="M749 584h-2q-82 0 -198 -125q-104 -101 -180 -278h383q45 0 90 63l1 1q31 59 31 139q0 127 -64 181q-14 10 -61 19zM1037 284q0 -38 -25 -103h109v-171h-1031l-34 171h159v1040h171v-707l19 25q171 217 321 217q50 0 140 -45q176 -102 176 -353v-26z" />
    <glyph glyph-name="afii62796" unicode="&#x637;" horiz-adv-x="1048" arabic-form="initial" 
d="M667 584h-2q-84 0 -195 -116q-108 -112 -182 -273l-8 -14h393q119 0 119 194q0 136 -68 190q-12 11 -57 19zM786 711q80 -44 131 -148.5t51 -228.5q0 -128 -73 -220q-78 -104 -225 -104h-695v171h164v1040h169v-704l19 24q169 215 318 215q59 0 141 -45z" />
    <glyph glyph-name="afii62797" unicode="&#x637;" horiz-adv-x="1009" arabic-form="medial" 
d="M630 584h-2q-86 0 -202 -125q-101 -105 -174 -264l-7 -14h388q46 0 91 63l2 1v1q26 51 26 138q0 120 -61 181q-14 10 -61 19zM920 363q0 -105 -33 -182h134v-171h-1063v171h139v1040h168v-707l19 25q171 217 327 217q51 0 133 -45q176 -102 176 -348z" />
    <glyph glyph-name="afii62801" unicode="&#x638;" horiz-adv-x="1113" arabic-form="final" 
d="M749 584h-2q-82 0 -198 -125q-104 -101 -180 -278h383q45 0 90 63l1 1q31 59 31 139q0 127 -64 181q-14 10 -61 19zM1037 284q0 -38 -25 -103h109v-171h-1031l-34 171h159v1040h171v-707l19 25q171 217 321 217q50 0 140 -45q176 -102 176 -353v-26zM798 1198
q42 0 80.5 -33t38.5 -72q0 -50 -30 -90.5t-75 -40.5q-64 0 -98.5 33.5t-34.5 97.5q0 37 39.5 71t79.5 34z" />
    <glyph glyph-name="afii62799" unicode="&#x638;" horiz-adv-x="1048" arabic-form="initial" 
d="M663 1170q42 0 80.5 -33t38.5 -72q0 -50 -30 -90.5t-75 -40.5q-64 0 -98.5 33.5t-34.5 97.5q0 37 39.5 71t79.5 34zM667 584h-2q-84 0 -195 -116q-108 -112 -182 -273l-8 -14h393q119 0 119 194q0 136 -68 190q-12 11 -57 19zM786 711q80 -44 131 -148.5t51 -228.5
q0 -128 -73 -220q-78 -104 -225 -104h-695v171h164v1040h169v-704l19 24q169 215 318 215q59 0 141 -45z" />
    <glyph glyph-name="afii62800" unicode="&#x638;" horiz-adv-x="1009" arabic-form="medial" 
d="M627 1160q42 0 80.5 -33t38.5 -72q0 -50 -30 -90.5t-75 -40.5q-64 0 -98.5 33.5t-34.5 97.5q0 37 39.5 71t79.5 34zM630 584h-2q-86 0 -202 -125q-101 -105 -174 -264l-7 -14h388q46 0 91 63l2 1v1q26 51 26 138q0 120 -61 181q-14 10 -61 19zM920 363q0 -105 -33 -182
h134v-171h-1063v171h139v1040h168v-707l19 25q171 217 327 217q51 0 133 -45q176 -102 176 -348z" />
    <glyph glyph-name="afii62804" unicode="&#x639;" horiz-adv-x="1272" arabic-form="final" 
d="M1015 523q0 51 -104 69h-332l232 -247q127 72 156 97q48 41 48 81zM929 226q101 -45 376 -45v-171q-188 0 -275 17q-159 28 -240 125l-8 -3q-469 -195 -469 -495q0 -143 133 -282q123 -116 266 -116h551l16 -175h-517q-254 0 -431 185q-180 166 -180 405q0 173 116 327
t396 274l-265 253l65 111l59 120h401q236 0 263 -201q0 -81 -13 -94v-1q-22 -106 -226 -224z" />
    <glyph glyph-name="afii62802" unicode="&#x639;" horiz-adv-x="964" arabic-form="initial" 
d="M246 181q-65 154 -65 247q0 146 114 251q41 36 109 57l63 14l86 6q72 0 151 -37h1q40 -14 68 -42q34 -19 68 -54l-84 -133q-145 111 -250 111q-111 0 -150 -109h-1l-14 -51v-36q0 -53 26 -113q46 -111 139 -111h376l31 -171h-947v171h279z" />
    <glyph glyph-name="afii62803" unicode="&#x639;" horiz-adv-x="886" arabic-form="medial" 
d="M634 519q0 12 -2 21.5t-8.5 16.5t-11 11.5t-16 8.5t-16.5 5.5t-21 5t-20 4.5h-333l232 -243q101 51 147 89q49 40 49 81zM581 234q134 -51 329 -53v-171q-177 0 -257 19q-75 15 -204 124q-118 -98 -244 -131q-72 -12 -239 -12v171q263 2 341 80l-268 264l121 231h403
q235 0 257 -201q0 -76 -5 -92q-35 -112 -234 -229z" />
    <glyph glyph-name="afii62807" unicode="&#x63a;" horiz-adv-x="1272" arabic-form="final" 
d="M814 1169q42 0 80.5 -33t38.5 -72q0 -50 -30 -90.5t-75 -40.5q-64 0 -98.5 33.5t-34.5 97.5q0 37 39.5 71t79.5 34zM1015 523q0 51 -104 69h-332l232 -247q127 72 156 97q48 41 48 81zM929 226q101 -45 376 -45v-171q-188 0 -275 17q-159 28 -240 125l-8 -3
q-469 -195 -469 -495q0 -143 133 -282q123 -116 266 -116h551l16 -175h-517q-254 0 -431 185q-180 166 -180 405q0 173 116 327t396 274l-265 253l65 111l59 120h401q236 0 263 -201q0 -81 -13 -94v-1q-22 -106 -226 -224z" />
    <glyph glyph-name="afii62805" unicode="&#x63a;" horiz-adv-x="964" arabic-form="initial" 
d="M246 181q-65 154 -65 247q0 146 114 251q41 36 109 57l63 14l86 6q72 0 151 -37h1q40 -14 68 -42q34 -19 68 -54l-84 -133q-145 111 -250 111q-111 0 -150 -109h-1l-14 -51v-36q0 -53 26 -113q46 -111 139 -111h376l31 -171h-947v171h279zM572 1163q42 0 80.5 -33
t38.5 -72q0 -50 -30 -90.5t-75 -40.5q-64 0 -98.5 33.5t-34.5 97.5q0 37 39.5 71t79.5 34z" />
    <glyph glyph-name="afii62806" unicode="&#x63a;" horiz-adv-x="886" arabic-form="medial" 
d="M634 519q0 12 -2 21.5t-8.5 16.5t-11 11.5t-16 8.5t-16.5 5.5t-21 5t-20 4.5h-333l232 -243q101 51 147 89q49 40 49 81zM581 234q134 -51 329 -53v-171q-177 0 -257 19q-75 15 -204 124q-118 -98 -244 -131q-72 -12 -239 -12v171q263 2 341 80l-268 264l121 231h403
q235 0 257 -201q0 -76 -5 -92q-35 -112 -234 -229zM454 1191q42 0 80.5 -33t38.5 -72q0 -50 -30 -90.5t-75 -40.5q-64 0 -98.5 33.5t-34.5 97.5q0 37 39.5 71t79.5 34z" />
    <glyph glyph-name="afii62810" unicode="&#x641;" horiz-adv-x="1725" arabic-form="final" 
d="M1473 411q0 64 -51.5 122.5t-111.5 58.5q-61 0 -116.5 -48t-55.5 -107q0 -117 204 -214l5 -3l4 4q122 75 122 187zM261 341q0 -77 39.5 -118.5t114.5 -41.5h686l-14 16q-103 121 -103 246q0 126 88 220q87 93 233 93q143 0 236 -103q83 -100 83 -226q0 -132 -75 -246h192
v-171q-316 0 -407 47q-7 -10 -19 -16.5t-32.5 -10t-33.5 -5t-44.5 -3.5t-42.5 -3q-68 -5 -189 -5l-638 -4q-104 0 -182 104q-61 94 -61 199v280h169v-252zM1300 1159q42 0 80.5 -33t38.5 -72q0 -50 -30 -90.5t-75 -40.5q-64 0 -98.5 33.5t-34.5 97.5q0 37 39.5 71t79.5 34z
" />
    <glyph glyph-name="afii62808" unicode="&#x641;" horiz-adv-x="894" arabic-form="initial" 
d="M649 514q0 92 -50 157t-134 65q-59 0 -101.5 -28.5t-42.5 -79.5q0 -95 59 -112q20 -12 130 -12h139v10zM831 320q0 -161 -109 -241q-88 -69 -180 -69h-566v171h569q119 0 119 154v10h-11q-262 0 -337 18q-152 64 -152 252q0 141 93 220q96 81 225 81t228 -93
q118 -103 118 -281zM487 1331q42 0 80.5 -33t38.5 -72q0 -50 -30 -90.5t-75 -40.5q-64 0 -98.5 33.5t-34.5 97.5q0 37 39.5 71t79.5 34z" />
    <glyph glyph-name="afii62809" unicode="&#x641;" horiz-adv-x="912" arabic-form="medial" 
d="M445 592q-58 0 -111 -50.5t-53 -107.5q0 -121 200 -211l5 -4q63 51 95 97t32 95q0 63 -53.5 122t-114.5 59zM121 448q0 136 93.5 222t233.5 86q152 0 237 -102q79 -98 79 -228q0 -131 -75 -245h265v-169l-51 4h-51l-136 3q-74 0 -150 13l-90 31q-70 -53 -535 -53v171h297
l-14 16q-103 121 -103 251zM467 1190q42 0 80.5 -33t38.5 -72q0 -50 -30 -90.5t-75 -40.5q-64 0 -98.5 33.5t-34.5 97.5q0 37 39.5 71t79.5 34z" />
    <glyph glyph-name="afii62813" unicode="&#x642;" horiz-adv-x="1439" arabic-form="final" 
d="M1142 191q0 86 -62.5 155.5t-145.5 69.5q-63 0 -106.5 -26.5t-43.5 -79.5q0 -80 72 -115l1 -1q43 -13 275 -13h10v10zM622 297q0 132 93.5 214t233.5 82q165 0 264 -113.5t99 -288.5v-10h154v-171h-159v-10q0 -106 -38 -182v-1q-32 -87 -114 -158v-1q-136 -133 -325 -133
h-297q-171 0 -308 149t-137 338v270h168v-296q0 -111 106 -198q105 -87 209 -87h253q115 0 206 86q107 83 107 213v10h-10q-280 0 -346 26q-159 54 -159 261zM803 1030q47 0 83 -36t36 -83q0 -41 -33.5 -79t-72.5 -38q-62 0 -96.5 34t-34.5 97q0 37 39 71t79 34zM1096 1030
q47 0 83.5 -36.5t36.5 -82.5q0 -41 -33.5 -79t-72.5 -38q-63 0 -97.5 34t-34.5 97q0 39 38.5 72t79.5 33z" />
    <glyph glyph-name="afii62811" unicode="&#x642;" horiz-adv-x="894" arabic-form="initial" 
d="M649 514q0 92 -50 157t-134 65q-59 0 -101.5 -28.5t-42.5 -79.5q0 -95 59 -112q20 -12 130 -12h139v10zM831 320q0 -161 -109 -241q-88 -69 -180 -69h-566v171h569q119 0 119 154v10h-11q-262 0 -337 18q-152 64 -152 252q0 141 93 220q96 81 225 81t228 -93
q118 -103 118 -281zM336 1324q46 0 82.5 -36t36.5 -83q0 -41 -33.5 -79t-72.5 -38q-62 0 -96.5 34t-34.5 97q0 37 39 71t79 34zM629 1324q47 0 83.5 -36.5t36.5 -82.5q0 -41 -33.5 -79t-72.5 -38q-63 0 -97.5 34t-34.5 97q0 39 38.5 72t79.5 33z" />
    <glyph glyph-name="afii62812" unicode="&#x642;" horiz-adv-x="912" arabic-form="medial" 
d="M445 592q-58 0 -111 -50.5t-53 -107.5q0 -121 200 -211l5 -4q63 51 95 97t32 95q0 63 -53.5 122t-114.5 59zM121 448q0 136 93.5 222t233.5 86q152 0 237 -102q79 -98 79 -228q0 -131 -75 -245h265v-169l-51 4h-51l-136 3q-74 0 -150 13l-90 31q-70 -53 -535 -53v171h297
l-14 16q-103 121 -103 251zM301 1171q47 0 83 -36.5t36 -82.5q0 -41 -33.5 -79t-72.5 -38q-62 0 -96.5 34t-34.5 97q0 37 39 71t79 34zM594 1171q47 0 83.5 -36.5t36.5 -82.5q0 -41 -33.5 -79t-72.5 -38q-63 0 -97.5 34t-34.5 97q0 39 38.5 72t79.5 33z" />
    <glyph glyph-name="afii62816" unicode="&#x643;" horiz-adv-x="1738" arabic-form="final" 
d="M710 901q0 -30 15.5 -47.5t44.5 -17.5q50 0 164 60l47 -93l-349 -175l-37 88l85 46q-72 65 -72 136t53 123t125 54q52 -10 110 -35l-44 -94q-42 30 -69 30q-25 0 -44 -16l13 -16l-17 13q-25 -35 -25 -56zM265 341q0 -91 32.5 -125.5t120.5 -34.5l726 -5h62q61 0 94 21.5
t45 70.5q15 36 15 109v844h171v-880q0 -108 66 -144h1l2 -1q60 -15 176 -15v-171h-51q-120 0 -165 13t-112 68q-71 -61 -126 -70q-58 -11 -967 -11q-113 0 -188 91t-75 212v280h173v-252z" />
    <glyph glyph-name="afii57410" unicode="&#x643;" horiz-adv-x="898" arabic-form="initial" 
d="M758 407q53 -65 53 -149q0 -86 -72 -169q-79 -79 -225 -79h-548v171h548q120 0 120 81q0 37 -38 89l-505 528l-35 190l750 270l20 -164l-569 -211z" />
    <glyph glyph-name="afii62815" unicode="&#x643;" horiz-adv-x="1103" arabic-form="medial" 
d="M784 175q-20 -49 -35.5 -75.5t-42 -49.5t-65 -31.5t-96.5 -8.5h-564v171h543q110 0 110 81q0 42 -46 95l-479 521l-28 205l739 263l27 -171l-573 -211l544 -600q113 -126 170 -162l1 -1l52 -16l72 -3v-172q-221 3 -318 150z" />
    <glyph glyph-name="afii62819" unicode="&#x644;" horiz-adv-x="1501" arabic-form="final" 
d="M825 -307q128 0 222.5 85t94.5 208v1235h170v-894q0 -143 222 -146v-171q-141 3 -199 88l-19 28v-35q0 -261 -148 -430q-133 -136 -329 -136h-294q-179 0 -315 148q-138 147 -138 339v388h169v-414q0 -110 91 -201q92 -92 230 -92h243z" />
    <glyph glyph-name="afii62817" unicode="&#x644;" horiz-adv-x="463" arabic-form="initial" 
d="M404 296q0 -132 -81 -209t-215 -77h-133v171h122q82 0 118 52l1 1v1q21 43 21 142v844h167v-925z" />
    <glyph glyph-name="afii62818" unicode="&#x644;" horiz-adv-x="636" arabic-form="medial" 
d="M102 180q93 0 121.5 43.5t28.5 153.5v844h171v-880q0 -109 69 -135q66 -24 176 -25v-171h-48q-116 0 -164 14q-49 14 -112 67q-71 -61 -126 -70q-58 -11 -243 -11v171z" />
    <glyph glyph-name="afii62822" unicode="&#x645;" horiz-adv-x="1345" arabic-form="final" 
d="M657 310q0 -62 47.5 -102t113.5 -40q71 0 116 46t45 118q0 175 -37 209q-49 49 -274 49h-11v-280zM480 590q-85 0 -154.5 -59t-69.5 -138v-868h-164v841q0 186 99 297q107 93 264 93h391q296 0 296 -438q0 -134 214 -137v-171q-98 1 -163 23q-54 28 -120 129l-7 -18
q-58 -147 -235 -147q-137 0 -230 93q-111 93 -111 256v244h-10z" />
    <glyph glyph-name="afii62820" unicode="&#x645;" horiz-adv-x="891" arabic-form="initial" 
d="M500 151q91 0 134.5 59t43.5 162t-43.5 160.5t-134.5 57.5t-135 -57.5t-44 -160.5q0 -104 43.5 -162.5t135.5 -58.5zM820 364q0 -170 -83 -276.5t-238 -106.5q-137 0 -213 76q-94 -46 -315 -47v171q156 1 185 35v1q12 12 12 151v20q0 146 87 259q84 109 241 109
q153 0 238.5 -111t85.5 -281z" />
    <glyph glyph-name="afii62821" unicode="&#x645;" horiz-adv-x="964" arabic-form="medial" 
d="M310 372q0 -221 179 -221q175 0 175 221q0 218 -175 218q-179 0 -179 -218zM981 10q-99 2 -143 26.5t-83 93.5l-9 -14q-81 -135 -256 -135q-54 0 -138 45q-66 40 -104 91l-14 18l-5 -23q-19 -100 -270 -102v171q157 1 186 35q12 13 13 48q2 48 2 124q0 144 86 259
q82 109 238 109q158 0 244 -110q87 -111 87 -274q0 -46 1.5 -68.5t8 -51t22.5 -43t43 -21.5q22 -5 91 -7v-171z" />
    <glyph glyph-name="afii62825" unicode="&#x646;" horiz-adv-x="1515" arabic-form="final" 
d="M1526 10q-143 3 -195 87l-19 31v-37q0 -261 -148 -430q-133 -136 -326 -136h-296q-175 0 -313 148q-137 148 -137 339v388h168v-414q0 -110 89 -201q90 -92 231 -92h245q122 0 219 82t97 211v607h168v-266q0 -143 217 -146v-171zM797 872q0 -42 -33 -80.5t-72 -38.5
q-58 0 -95 31t-37 86q0 48 35 84t83 36t83.5 -35t35.5 -83z" />
    <glyph glyph-name="afii62823" unicode="&#x646;" horiz-adv-x="623" arabic-form="initial" 
d="M353 1024q42 0 80.5 -33t38.5 -72q0 -50 -30 -90.5t-75 -40.5q-64 0 -98.5 33.5t-34.5 97.5q0 37 39.5 71t79.5 34zM546 313q0 -115 -81 -209t-190 -94h-300v171h240q101 0 138 52v1h1q15 26 15 107v252h177v-280z" />
    <glyph glyph-name="afii62824" unicode="&#x646;" horiz-adv-x="785" arabic-form="medial" 
d="M409 1034q42 0 80.5 -33t38.5 -72q0 -50 -30 -90.5t-75 -40.5q-64 0 -98.5 33.5t-34.5 97.5q0 37 39.5 71t79.5 34zM315 181q87 0 118.5 34.5t31.5 125.5v252h174v-252q0 -96 36.5 -127t139.5 -33v-171l-102 4l-55 8l-42 21l-60 48q-98 -81 -184 -81h-401v171h344z" />
    <glyph glyph-name="afii62828" unicode="&#x647;" horiz-adv-x="1186" arabic-form="final" 
d="M492 151q72 0 133 54t61 123q0 57 -36 114l-81 81q-20 20 -47 47.5t-34 34.5l-7 -8q-109 -100 -141 -152q-33 -53 -33 -109q0 -58 46 -119q48 -66 139 -66zM839 224q-109 -237 -350 -237q-144 0 -250 104q-105 103 -105 255q0 100 72 207q31 49 157 175l-56 66l117 117
l567 -603q80 -83 108 -106h1l1 -1q39 -18 117 -20v-171q-136 1 -169 34h-1q-16 6 -209 180z" />
    <glyph glyph-name="afii62829" unicode="&#x648;" horiz-adv-x="951" arabic-form="final" 
d="M650 10q-96 0 -167.5 9.5t-134 33.5t-101.5 64t-61 103.5t-22 149.5q0 229 113 329q72 57 221 57q214 0 296 -178q47 -112 47 -387v-10h130v-171h-130v-10q0 -136 -65 -241.5t-169 -166.5q-114 -67 -249 -67h-238l-26 168h233q147 0 240 93t93 214v10h-10zM669 375
q0 93 -48 152.5t-134 59.5q-148 0 -148 -207q0 -118 65 -160q62 -39 254 -39h11v194z" />
    <glyph glyph-name="afii62830" unicode="&#x649;" horiz-adv-x="1373" arabic-form="final" 
d="M1394 10h-177l9 -103q0 -159 -127 -271q-123 -111 -282 -111h-298q-213 0 -349 163q-115 155 -115 381v331h174v-408q0 -104 72 -194v-1h1q96 -104 261 -104h245q98 0 173 57q73 57 73 168q0 62 -97 78q-80 14 -298 14l-14 171h749v-171z" />
    <glyph glyph-name="afii62833" unicode="&#x64a;" horiz-adv-x="1373" arabic-form="final" 
d="M498 -628q46 0 82.5 -36t36.5 -83q0 -41 -33.5 -79t-72.5 -38q-62 0 -96.5 34t-34.5 97q0 37 39 71t79 34zM791 -628q47 0 83.5 -36.5t36.5 -82.5q0 -41 -33.5 -79t-72.5 -38q-63 0 -97.5 34t-34.5 97q0 39 38.5 72t79.5 33zM1394 10h-177l9 -103q0 -159 -127 -271
q-123 -111 -282 -111h-298q-213 0 -349 163q-115 155 -115 381v331h174v-408q0 -104 72 -194v-1h1q96 -104 261 -104h245q98 0 173 57q73 57 73 168q0 62 -97 78q-80 14 -298 14l-14 171h749v-171z" />
    <glyph glyph-name="afii62831" unicode="&#x64a;" horiz-adv-x="623" arabic-form="initial" 
d="M546 313q0 -115 -81 -209t-190 -94h-300v171h240q101 0 138 52v1h1q15 26 15 107v252h177v-280zM175 -193q47 0 83 -36.5t36 -82.5q0 -41 -33.5 -79t-72.5 -38q-62 0 -96.5 34t-34.5 97q0 37 39 71t79 34zM468 -193q47 0 83.5 -36.5t36.5 -82.5q0 -41 -33.5 -79
t-72.5 -38q-63 0 -97.5 34t-34.5 97q0 39 38.5 72t79.5 33z" />
    <glyph glyph-name=".notdef" horiz-adv-x="1024" 
d="M102 0v1092h820v-1092h-820zM204 102h616v888h-616v-888z" />
    <glyph glyph-name=".null" 
 />
    <glyph glyph-name="nonmarkingreturn" horiz-adv-x="682" 
 />
    <glyph glyph-name="space" unicode=" " horiz-adv-x="348" 
 />
    <glyph glyph-name="quotedbl" unicode="&#x22;" horiz-adv-x="857" 
d="M517 1227q35 -1 46.5 -18.5t11.5 -59.5q0 -6 -17 -172t-17 -173h-52q0 12 -16 181t-16 186q0 30 14 43t46 13zM265 1227q35 -1 46.5 -18.5t11.5 -59.5q0 -6 -17 -172t-17 -173h-52q0 12 -16 181t-16 186q0 30 14 43t46 13z" />
    <glyph glyph-name="numbersign" unicode="#" horiz-adv-x="764" 
d="M468 360l55 264h-233l-53 -264h231zM141 280h-117v80h131l56 264h-187v80h202l60 287h78l-60 -287h234l60 287h79l-57 -287h117v-80h-134l-54 -264h188v-80h-205l-57 -286h-81l58 286h-232l-58 -286h-80z" />
    <glyph glyph-name="dollar" unicode="$" horiz-adv-x="764" 
d="M403 70q79 8 131.5 62.5t52.5 136.5q0 88 -43 128q-40 38 -141 68v-395zM353 930q-74 -12 -123 -57.5t-49 -119.5q0 -145 172 -185v362zM80 743q0 121 74 187t199 79v58h50v-58q230 -26 263 -226l-105 -14q-27 137 -158 160v-370q79 -20 128 -37q159 -70 159 -242
q0 -124 -77.5 -203t-199.5 -85h-10v-123h-50v119q-94 12 -140 35q-137 74 -152 243l101 18q35 -199 191 -214v405q-91 22 -148 53q-125 69 -125 215z" />
    <glyph glyph-name="percent" unicode="%" horiz-adv-x="866" 
d="M722 99q0 -36 -25.5 -61t-61.5 -25q-37 0 -61.5 24.5t-24.5 61.5q0 35 25.5 61t60.5 26t61 -26t26 -61zM273 888q0 -34 -26 -60t-60 -26q-35 0 -61 25.5t-26 60.5q0 36 25.5 61t61.5 25q35 0 60.5 -26t25.5 -60zM774 985l-541 -979h-125l535 979h131z" />
    <glyph glyph-name="ampersand" unicode="&#x26;" horiz-adv-x="917" 
d="M358 501q-145 -82 -171 -169q-7 -21 -7 -55q0 -66 49 -130q50 -68 143 -68q65 0 128 41.5t90 92.5zM543 792q0 50 -35.5 85t-85.5 35q-51 0 -88 -34.5t-37 -84.5q0 -54 48 -108l60 -69q89 51 112 88q26 39 26 88zM425 991q91 0 156.5 -57t65.5 -142q0 -134 -182 -230
l-10 -7l194 -249q38 75 53 146l106 -24q-35 -127 -88 -204q82 -103 150 -153l-68 -80q-74 54 -149 140l-8 -8q-114 -129 -267 -129q-151 0 -238 99q-71 80 -71 178q0 103 68 175.5t173 115.5q-100 128 -112 177q-5 19 -5 42q0 88 70 149t162 61z" />
    <glyph glyph-name="quotesingle" unicode="'" horiz-adv-x="491" 
d="M265 1227q35 -1 46.5 -18.5t11.5 -59.5q0 -6 -17 -172t-17 -173h-52q0 12 -16 181t-16 186q0 30 14 43t46 13z" />
    <glyph glyph-name="parenleft" unicode="(" horiz-adv-x="722" 
d="M387 -55q-274 362 -274 704q0 180 78 358l1 1q49 151 195 324h96q-122 -228 -152 -341q-54 -174 -54 -382q0 -305 207 -664h-97z" />
    <glyph glyph-name="parenright" unicode=")" horiz-adv-x="636" 
d="M121 -55q207 359 207 653q0 300 -112 545q-36 79 -94 189h95q145 -167 196 -324l1 -1q77 -176 77 -358q0 -342 -274 -704h-96z" />
    <glyph glyph-name="asterisk" unicode="*" horiz-adv-x="945" 
d="M487 307l5 297l-198 -201h-59l233 234h-285l12 57h290l-227 223h49l190 -186l5 269l79 26l-5 -284l188 175h60l-237 -223h294l-14 -57h-280l230 -234h-48l-194 200l-8 -271z" />
    <glyph glyph-name="plus" unicode="+" horiz-adv-x="1052" 
d="M469 163v333h-334v119h334v333h119v-333h333v-119h-333v-333h-119z" />
    <glyph glyph-name="comma" unicode="," horiz-adv-x="217" 
d="M177 131l-121 -260h-50l75 260h96z" />
    <glyph glyph-name="hyphen" unicode="-" horiz-adv-x="1054" 
d="M135 496v119h786v-119h-786z" />
    <glyph glyph-name="period" unicode="." horiz-adv-x="571" 
d="M449 142q0 -52 -39.5 -90.5t-92.5 -38.5t-91 38.5t-38 90.5q0 53 38.5 92t90.5 39t92 -39.5t40 -91.5z" />
    <glyph glyph-name="slash" unicode="/" horiz-adv-x="866" 
d="M774 985l-541 -979h-125l535 979h131z" />
    <glyph glyph-name="colon" unicode=":" horiz-adv-x="558" 
d="M406 736q0 -48 -33.5 -81t-81.5 -33q-47 0 -81 33.5t-34 80.5t34 81.5t81 34.5q46 0 80.5 -34.5t34.5 -81.5zM406 129q0 -48 -33.5 -80.5t-81.5 -32.5t-81.5 32.5t-33.5 80.5t33.5 82.5t81.5 34.5q47 0 81 -35t34 -82z" />
    <glyph glyph-name="semicolon" unicode=";" horiz-adv-x="301" 
d="M169 139q27 0 45 -19t18 -46v-106q0 -80 -83 -80h-29v40q62 6 62 53q0 13 -6 27h-7q-65 0 -65 66q0 25 20 45t45 20zM237 416q0 -25 -19 -44t-44 -19q-26 0 -45 19t-19 44t19 44t45 19q25 0 44 -19t19 -44z" />
    <glyph glyph-name="less" unicode="&#x3c;" horiz-adv-x="937" 
d="M792 65l-656 314v63l656 312v-89l-538 -254l538 -256v-90z" />
    <glyph glyph-name="equal" unicode="=" horiz-adv-x="971" 
d="M80 460h806v-120h-806v120zM80 717h806v-121h-806v121z" />
    <glyph glyph-name="greater" unicode="&#x3e;" horiz-adv-x="937" 
d="M801 379l-656 -314v90l540 256l-540 254v89l656 -312v-63z" />
    <glyph glyph-name="question" unicode="?" horiz-adv-x="764" 
d="M320 127h117v-117h-117v117zM72 727q18 126 96 195t216 69q125 0 213.5 -71.5t88.5 -185.5q0 -64 -30 -116q-27 -49 -111 -122q-75 -65 -96 -106q-22 -43 -26 -138h-95v27q0 43 9 80t20 61t36 52.5t39.5 42t47.5 41.5q63 55 82 92q22 38 22 76q0 76 -61.5 132t-139.5 56
q-169 0 -208 -197z" />
    <glyph glyph-name="at" unicode="@" horiz-adv-x="1396" 
d="M899 150q0 -21 17.5 -35.5t40.5 -14.5q35 0 90 36q72 50 125 138.5t53 186.5q0 271 -234 395q-112 60 -256 60q-249 0 -411 -168q-161 -167 -161 -427q0 -252 160.5 -387t429.5 -135q161 0 285 53t194 149h98q-53 -100 -196 -187q-151 -92 -380 -92h-15q-209 0 -370 86
q-281 152 -284 511q0 161 66 305q168 368 590 368q177 0 302 -70t197 -194q64 -119 64 -249q0 -194 -134 -338q-119 -133 -261 -133q-61 0 -86.5 22.5t-31.5 80.5l-2 24l-16 -17q-96 -110 -200 -110q-131 0 -197 136q-35 76 -35 140q0 141 78 263t186 158q35 12 75 12
q121 0 193 -119l13 -23l28 123h99l-94 -438q-20 -95 -20 -110zM854 442q0 76 -43.5 136.5t-110.5 60.5q-83 0 -143 -59.5t-86 -139.5q-26 -81 -26 -163q0 -68 41.5 -129t101.5 -61q82 0 144 58t92 137q30 80 30 160z" />
    <glyph glyph-name="braceleft" unicode="{" horiz-adv-x="458" 
d="M49 401q78 4 107.5 59.5t29.5 154.5q0 6 0.5 27t0.5 36v41q0 92 8 133.5t42 90.5q35 46 153 48h28v-85h-13q-69 0 -96.5 -26.5t-27.5 -93.5q0 -5 -0.5 -26.5t-0.5 -37.5q0 -120 -7 -184q-14 -77 -39 -109.5t-89 -63.5l-22 -10l22 -9q80 -31 107.5 -94.5t27.5 -190.5
q0 -126 4 -174q6 -45 33.5 -63t82.5 -18h18v-84h-28q-67 0 -98.5 10.5t-59.5 44.5q-26 31 -35 80q-3 12 -9 169q-6 149 -12 176q-22 99 -127 109v90z" />
    <glyph glyph-name="braceright" unicode="}" horiz-adv-x="458" 
d="M52 -194q79 0 102.5 31t23.5 118q0 176 9 227q16 119 126 164l21 9l-21 10q-72 36 -104 95q-31 60 -31 210q0 161 -9 182q-12 33 -38 43.5t-79 10.5h-10v85h27q90 0 135 -32t58 -107q0 -2 9.5 -169t10.5 -172q23 -104 130 -110v-90q-28 -2 -49.5 -11.5t-36 -20.5
t-24.5 -34.5t-15.5 -39.5t-8.5 -50.5t-4 -52.5t-2 -60q0 -13 -0.5 -47t-1 -46.5t-2 -39t-4.5 -40t-7.5 -33t-12.5 -34t-18 -28.5q-40 -52 -157 -52h-27v84h10z" />
    <glyph glyph-name="copyright" unicode="&#xa9;" horiz-adv-x="1044" 
d="M377 388q0 130 86 220t213 90q76 0 154 -22l-25 -97l-25 4l6 67q-70 30 -120 30q-69 0 -120 -45t-75 -109q-25 -65 -25 -138q0 -83 41 -127t120 -44q69 0 136 25l-5 -27q-82 -26 -147 -26q-97 0 -155.5 53t-58.5 146zM297 134q130 -130 313 -130t313 130t130 313
q0 184 -130 314q-129 129 -313 129t-313 -129q-130 -130 -130 -314q0 -183 130 -313zM610 907q190 0 325 -135t135 -325t-134 -324q-136 -136 -326 -136q-186 0 -325 136q-135 133 -135 324q0 193 135 326q135 134 325 134z" />
    <glyph glyph-name="guillemotleft" unicode="&#xab;" horiz-adv-x="705" 
d="M245 600q36 60 120 90q-3 -7 -20 -46q-27 -55 -45 -140t-18 -163v-3q0 -172 72 -322q10 -20 11 -25q-84 30 -120 88q-64 106 -64 259q0 156 64 262zM480 600q36 59 121 90q-3 -7 -20 -46q-27 -55 -45 -140t-18 -163v-3q0 -174 71 -322q12 -23 12 -25q-86 31 -121 88
q-64 106 -64 259q0 156 64 262z" />
    <glyph glyph-name="logicalnot" unicode="&#xac;" horiz-adv-x="782" 
d="M162 439l8 46h636l-53 -267h-57l44 221h-578z" />
    <glyph glyph-name="registered" unicode="&#xae;" horiz-adv-x="752" 
d="M439 647h43q114 0 114 81q0 51 -86 51h-45zM621 735q0 -56 -88 -100l35 -109h46l-3 -15h-65l-42 119h-68l-23 -119h-70l3 15h46l50 253h-45l3 16h102q119 0 119 -60zM487 887q-97 0 -170.5 -73.5t-73.5 -171.5t73 -172t171 -74q100 0 173 73t73 173t-73 172.5t-173 72.5z
M488 900q106 0 182 -76.5t76 -181.5q0 -104 -77 -181t-182 -77t-181 76.5t-76 181.5t76.5 181.5t181.5 76.5z" />
    <glyph glyph-name="macron" unicode="&#xaf;" horiz-adv-x="938" 
d="M942 1068h-945v88h945v-88z" />
    <glyph glyph-name="degree" unicode="&#xb0;" horiz-adv-x="343" 
d="M332 890q-32 0 -55 -23t-23 -54t23 -54.5t55 -23.5q31 0 53.5 23t22.5 55t-22.5 54.5t-53.5 22.5zM333 907q39 0 65.5 -27.5t26.5 -66.5q0 -38 -27.5 -66t-64.5 -28q-38 0 -66.5 28t-28.5 66t28.5 66t66.5 28z" />
    <glyph glyph-name="periodcentered" unicode="&#xb7;" horiz-adv-x="607" 
d="M395 710h-181v218h181v-218z" />
    <glyph glyph-name="guillemotright" unicode="&#xbb;" horiz-adv-x="693" 
d="M310 80q-35 -60 -121 -89q3 8 21 49.5t27.5 70.5t16.5 64q18 84 18 163v3q0 175 -71 323q-6 9 -12 26q85 -30 121 -90q64 -106 64 -258q0 -156 -64 -262zM545 80q-35 -60 -121 -89q3 8 21 49.5t27.5 70.5t16.5 64q18 84 18 163v3q0 175 -71 323q-6 9 -12 26
q85 -30 121 -90q64 -106 64 -258q0 -156 -64 -262z" />
    <glyph glyph-name="multiply" unicode="&#xd7;" horiz-adv-x="973" 
d="M209 319l236 236l-236 237l84 84l236 -237l235 236l84 -84l-235 -236l235 -235l-84 -85l-235 235l-236 -235z" />
    <glyph glyph-name="divide" unicode="&#xf7;" horiz-adv-x="1081" 
d="M609 91h-130v153h130v-153zM906 442h-724v82h724v-82zM609 722h-130v153h130v-153z" />
    <glyph glyph-name="afii57388" unicode="&#x60c;" horiz-adv-x="512" 
d="M284 244q126 0 126 -120q0 -102 -119 -102t-119 102q0 167 29 233q39 97 168 102v-87q-96 -6 -96 -118v-10h11z" />
    <glyph glyph-name="afii57403" unicode="&#x61b;" horiz-adv-x="574" 
d="M159 151q0 49 34 85.5t82 36.5t84 -36.5t36 -85.5t-35 -84t-85 -35t-83 34t-33 85zM250 743q63 0 94 -29t31 -91q0 -102 -118 -102t-118 102q0 170 27 233q39 98 168 102v-88q-95 -6 -95 -116v-11h11z" />
    <glyph glyph-name="afii57407" unicode="&#x61f;" horiz-adv-x="863" 
d="M440 213q59 0 88.5 -22.5t29.5 -73.5q0 -38 -34 -78q-40 -29 -82 -29q-46 0 -86 30q-33 33 -33 77q0 52 29 74t88 22zM434 1075q-71 0 -118 -41.5t-47 -109.5q0 -59 22 -96q20 -24 69 -75t85.5 -94t50.5 -74l22 -97l9 -116h-162q-2 110 -32 172q-13 24 -94 108
q-84 82 -116 137q-31 53 -31 129q0 139 94 222.5t239 83.5q123 0 213.5 -58.5t119.5 -154.5l13 -78l7 -97h-164q-6 239 -180 239z" />
    <glyph glyph-name="afii57409" unicode="&#x621;" horiz-adv-x="799" 
d="M531 366q-36 0 -59 -22t-23 -58q0 -33 17.5 -56.5t47.5 -23.5q54 0 167 54l45 -96l-436 -183l-32 90l166 68l-18 11q-37 21 -54 54.5t-17 88.5q5 73 60.5 128t130.5 55q70 0 125 -47l-43 -91q-46 28 -77 28z" />
    <glyph glyph-name="afii52400" unicode="&#x622;" horiz-adv-x="667" 
d="M447 9h-171v1057h171v-1057zM652 1224h-396q-75 0 -113 -38q-37 -37 -69 -98l-130 48q61 143 105 176q44 36 83 49.5t113 14.5h407v-152z" />
    <glyph glyph-name="afii57411" unicode="&#x623;" horiz-adv-x="476" 
d="M233 1559q0 -33 27 -50t65 -17h1q44 0 146 40l29 -69l-364 -132l-20 65l94 36q-58 54 -58 100q0 71 53 125t122 56q56 0 106 -44l-43 -63q-29 26 -70 26q-36 0 -62 -20t-26 -53zM391 10h-171v1211h171v-1211z" />
    <glyph glyph-name="afii57412" unicode="&#x624;" horiz-adv-x="885" 
d="M652 393q0 92 -40 143t-122 51q-89 0 -121.5 -51t-32.5 -158q0 -120 60 -160q58 -37 246 -37h10v212zM820 -26q0 -164 -136 -306q-137 -143 -334 -143h-236l-24 168h230q147 0 240 93q92 92 92 214v10h-10q-218 0 -338 60q-149 72 -149 300q0 230 113 329q74 59 222 59
q212 0 290 -174q40 -105 40 -369v-241zM348 1129q0 -33 27 -50t65 -17h1q44 0 146 40l29 -69l-364 -132l-20 65l94 36q-58 54 -58 100q0 71 53 125t122 56q56 0 106 -44l-43 -63q-29 26 -70 26q-36 0 -62 -20t-26 -53z" />
    <glyph glyph-name="afii57413" unicode="&#x625;" horiz-adv-x="476" 
d="M391 10h-171v1211h171v-1211zM207 -327q0 -33 27 -50t65 -17h1q44 0 146 40l29 -69l-364 -132l-20 65l94 36q-58 54 -58 100q0 71 53 125t122 56q56 0 106 -44l-43 -63q-29 26 -70 26q-36 0 -62 -20t-26 -53z" />
    <glyph glyph-name="afii57414" unicode="&#x626;" horiz-adv-x="1373" 
d="M692 350q0 132 97.5 232t228.5 100h224l9 -157h-225q-102 0 -152 -101l-1 -1q-24 -86 -24 -221v-11h11q253 0 344 -44q97 -52 97 -209q0 -124 -36 -196l-1 -1q-21 -83 -105 -162q-134 -128 -321 -128h-296q-179 0 -314 147q-131 143 -131 340v383h159v-408
q0 -131 115 -228q95 -67 209 -67h250q103 0 199 69q105 90 105 192q0 105 -80 131q-78 24 -362 24v316zM386 908q0 -33 27 -50t65 -17h1q44 0 146 40l29 -69l-364 -132l-20 65l94 36q-58 54 -58 100q0 71 53 125t122 56q56 0 106 -44l-43 -63q-29 26 -70 26q-36 0 -62 -20
t-26 -53z" />
    <glyph glyph-name="afii57415.001" unicode="&#x627;" horiz-adv-x="476" 
d="M391 10h-171v1211h171v-1211z" />
    <glyph glyph-name="afii57416" unicode="&#x628;" horiz-adv-x="1696" 
d="M353 10q-106 0 -185 95t-79 208v280h171v-252q0 -69 18 -106v-1h1q35 -53 132 -53h898q86 0 119 35.5t33 124.5v252h172v-280q0 -119 -83 -211q-84 -92 -184 -92h-1013zM852 -191q42 0 80.5 -33t38.5 -72q0 -50 -30 -90.5t-75 -40.5q-64 0 -98.5 33.5t-34.5 97.5
q0 37 39.5 71t79.5 34z" />
    <glyph glyph-name="afii57417" unicode="&#x629;" horiz-adv-x="863" 
d="M442 151q75 0 129.5 53t54.5 126q0 66 -30 103l-164 172q-103 -103 -148 -162l-2 -1l-21 -42l-13 -67v-1q0 -39 44 -110v-3q59 -68 150 -68zM709 555q88 -110 88 -234q0 -126 -107 -230t-251 -104q-147 0 -249 106q-102 107 -102 253q0 103 61 207l60 76l102 99l-57 67
l116 116zM265 1278q47 0 83 -36t36 -83q0 -41 -33.5 -79t-72.5 -38q-62 0 -96.5 34t-34.5 97q0 37 39 71t79 34zM558 1278q47 0 83.5 -36.5t36.5 -82.5q0 -41 -33.5 -79t-72.5 -38q-63 0 -97.5 34t-34.5 97q0 39 38.5 72t79.5 33z" />
    <glyph glyph-name="afii57418" unicode="&#x62a;" horiz-adv-x="1691" 
d="M353 10q-106 0 -185 95t-79 208v280h171v-252q0 -69 18 -106v-1h1q35 -53 132 -53h898q86 0 119 35.5t33 124.5v252h172v-280q0 -119 -83 -211q-84 -92 -184 -92h-1013zM741 1031q47 0 83 -36.5t36 -82.5q0 -41 -33.5 -79t-72.5 -38q-62 0 -96.5 34t-34.5 97q0 37 39 71
t79 34zM1034 1031q47 0 83.5 -36.5t36.5 -82.5q0 -41 -33.5 -79t-72.5 -38q-63 0 -97.5 34t-34.5 97q0 39 38.5 72t79.5 33z" />
    <glyph glyph-name="afii57419" unicode="&#x62b;" horiz-adv-x="1698" 
d="M353 10q-106 0 -185 95t-79 208v280h171v-252q0 -69 18 -106v-1h1q35 -53 132 -53h898q86 0 119 35.5t33 124.5v252h172v-280q0 -119 -83 -211q-84 -92 -184 -92h-1013zM1001 1032q47 0 83.5 -36.5t36.5 -82.5q0 -48 -36 -83t-84 -35t-83 35t-35 83q0 47 35.5 83t82.5 36
zM810 913q0 -47 -36 -82.5t-83 -35.5q-48 0 -82.5 35t-34.5 83q0 47 35.5 83t81.5 36q47 0 83 -36t36 -83zM958 1205q0 -47 -36 -83t-83 -36t-82 35.5t-35 83.5q0 47 35.5 83t81.5 36q47 0 83 -36t36 -83z" />
    <glyph glyph-name="afii57420" unicode="&#x62c;" horiz-adv-x="1293" 
d="M855 -205q42 0 80.5 -33t38.5 -72q0 -50 -30 -90.5t-75 -40.5q-64 0 -98.5 33.5t-34.5 97.5q0 37 39.5 71t79.5 34zM1309 -919h-513q-298 0 -485 214q-138 168 -138 370v38l5 43q29 262 270 389l602 329q-54 95 -139 111q-80 15 -506 15l-25 166h453q185 0 286.5 -98
t102.5 -280l-624 -352q-263 -148 -263 -367q0 -159 132 -281q131 -122 279 -122h549z" />
    <glyph glyph-name="afii57421" unicode="&#x62d;" horiz-adv-x="1293" 
d="M1309 -919h-513q-298 0 -485 214q-138 168 -138 370v38l5 43q29 262 270 389l602 329q-54 95 -139 111q-80 15 -506 15l-25 166h453q185 0 286.5 -98t102.5 -280l-624 -352q-263 -148 -263 -367q0 -159 132 -281q131 -122 279 -122h549z" />
    <glyph glyph-name="afii57422" unicode="&#x62e;" horiz-adv-x="1293" 
d="M1309 -919h-513q-298 0 -485 214q-138 168 -138 370v38l5 43q29 262 270 389l602 329q-54 95 -139 111q-80 15 -506 15l-25 166h453q185 0 286.5 -98t102.5 -280l-624 -352q-263 -148 -263 -367q0 -159 132 -281q131 -122 279 -122h549zM691 1182q42 0 80.5 -33t38.5 -72
q0 -50 -30 -90.5t-75 -40.5q-64 0 -98.5 33.5t-34.5 97.5q0 37 39.5 71t79.5 34z" />
    <glyph glyph-name="afii57423" unicode="&#x62f;" horiz-adv-x="1096" 
d="M1037 256q0 -114 -76.5 -180t-196.5 -66h-580l-24 171h594q120 0 120 86q0 43 -37 77l-422 451l113 116l429 -452q80 -89 80 -203z" />
    <glyph glyph-name="afii57424" unicode="&#x630;" horiz-adv-x="1096" 
d="M1037 256q0 -114 -76.5 -180t-196.5 -66h-580l-24 171h594q120 0 120 86q0 43 -37 77l-422 451l113 116l429 -452q80 -89 80 -203zM457 1291q42 0 80.5 -33t38.5 -72q0 -50 -30 -90.5t-75 -40.5q-64 0 -98.5 33.5t-34.5 97.5q0 37 39.5 71t79.5 34z" />
    <glyph glyph-name="afii57425" unicode="&#x631;" horiz-adv-x="872" 
d="M262 -299q207 0 311 129q53 67 53 156v607h179v-558q0 -204 -135 -357t-335 -153h-245l-29 176h201z" />
    <glyph glyph-name="afii57426" unicode="&#x632;" horiz-adv-x="872" 
d="M262 -299q207 0 311 129q53 67 53 156v607h179v-558q0 -204 -135 -357t-335 -153h-245l-29 176h201zM618 1042q42 0 80.5 -33t38.5 -72q0 -50 -30 -90.5t-75 -40.5q-64 0 -98.5 33.5t-34.5 97.5q0 37 39.5 71t79.5 34z" />
    <glyph glyph-name="afii57427" unicode="&#x633;" horiz-adv-x="2357" 
d="M2296 307q0 -137 -88 -219t-231 -82q-111 0 -242 111q-96 -111 -247 -111q-66 0 -149 72l-18 14v-23q0 -241 -135 -392q-135 -152 -329 -152h-294q-185 0 -323 144q-138 145 -138 343v388h167v-397q0 -131 93 -220.5t226 -89.5h246q136 0 226.5 88t90.5 222v590h170v-275
q0 -57 50.5 -99.5t110.5 -42.5q162 0 162 141v276h175v-273q0 -55 48 -99.5t106 -44.5q152 0 152 133v284h171v-286z" />
    <glyph glyph-name="afii57428" unicode="&#x634;" horiz-adv-x="2353" 
d="M2296 307q0 -137 -88 -219t-231 -82q-111 0 -242 111q-96 -111 -247 -111q-66 0 -149 72l-18 14v-23q0 -241 -135 -392q-135 -152 -329 -152h-294q-185 0 -323 144q-138 145 -138 343v388h167v-397q0 -131 93 -220.5t226 -89.5h246q136 0 226.5 88t90.5 222v590h170v-275
q0 -57 50.5 -99.5t110.5 -42.5q162 0 162 141v276h175v-273q0 -55 48 -99.5t106 -44.5q152 0 152 133v284h171v-286zM1892 1025q47 0 83.5 -36.5t36.5 -82.5q0 -48 -36 -83t-84 -35t-83 35t-35 83q0 47 35.5 83t82.5 36zM1701 906q0 -47 -36 -82.5t-83 -35.5q-48 0 -82.5 35
t-34.5 83q0 47 35.5 83t81.5 36t82.5 -36.5t36.5 -82.5zM1849 1198q0 -46 -36.5 -82.5t-82.5 -36.5q-47 0 -82 35.5t-35 83.5q0 47 35.5 83t81.5 36t82.5 -36.5t36.5 -82.5z" />
    <glyph glyph-name="afii57429" unicode="&#x635;" horiz-adv-x="2427" 
d="M2064 181q57 0 94.5 57.5t37.5 124.5q0 104 -74 199q-13 25 -52 25q-88 0 -202 -123q-116 -125 -194 -283h390zM2361 341q0 -150 -89.5 -240.5t-239.5 -90.5h-520q-157 0 -193 96l-20 53v-57q0 -248 -135 -413q-134 -164 -333 -164h-292q-188 0 -326 155
q-137 152 -137 355v365h168v-414q0 -98 98 -190q99 -95 214 -95h268q115 0 208 90q94 91 94 195v607h175v-275q0 -137 196 -137h8l2 6q104 273 245 423q138 146 280 146q70 0 143 -45q86 -48 135 -152l38 -111q13 -46 13 -107z" />
    <glyph glyph-name="afii57430" unicode="&#x636;" horiz-adv-x="2427" 
d="M2064 181q57 0 94.5 57.5t37.5 124.5q0 104 -74 199q-13 25 -52 25q-88 0 -202 -123q-116 -125 -194 -283h390zM2361 341q0 -150 -89.5 -240.5t-239.5 -90.5h-520q-157 0 -193 96l-20 53v-57q0 -248 -135 -413q-134 -164 -333 -164h-292q-188 0 -326 155
q-137 152 -137 355v365h168v-414q0 -98 98 -190q99 -95 214 -95h268q115 0 208 90q94 91 94 195v607h175v-275q0 -137 196 -137h8l2 6q104 273 245 423q138 146 280 146q70 0 143 -45q86 -48 135 -152l38 -111q13 -46 13 -107zM1520 1117q42 0 80.5 -33t38.5 -72
q0 -50 -30 -90.5t-75 -40.5q-64 0 -98.5 33.5t-34.5 97.5q0 37 39.5 71t79.5 34z" />
    <glyph glyph-name="afii57431" unicode="&#x637;" horiz-adv-x="1092" 
d="M749 584h-2q-82 0 -198 -125q-104 -101 -180 -278h383q45 0 90 63l1 1q31 59 31 139q0 127 -64 181q-14 10 -61 19zM995 560q53 -103 53 -227q0 -126 -75 -219q-78 -104 -221 -104h-658l-33 171h156v1040h169v-705l19 23q175 217 321 217q56 0 140 -45q88 -48 129 -150
v-1z" />
    <glyph glyph-name="afii57432" unicode="&#x638;" horiz-adv-x="1096" 
d="M749 584h-2q-82 0 -198 -125q-104 -101 -180 -278h383q45 0 90 63l1 1q31 59 31 139q0 127 -64 181q-14 10 -61 19zM995 560q53 -103 53 -227q0 -126 -75 -219q-78 -104 -221 -104h-658l-33 171h156v1040h169v-705l19 23q175 217 321 217q56 0 140 -45q88 -48 129 -150
v-1zM726 1170q42 0 80.5 -33t38.5 -72q0 -50 -30 -90.5t-75 -40.5q-64 0 -98.5 33.5t-34.5 97.5q0 37 39.5 71t79.5 34z" />
    <glyph glyph-name="afii57433" unicode="&#x639;" horiz-adv-x="1281" 
d="M586 10q-85 0 -149.5 -52t-95.5 -131.5t-31 -172.5q0 -154 102 -275q102 -123 295 -123h512l26 -175h-493q-263 0 -448 185q-166 169 -166 397q0 170 95 307q101 146 311 230q-65 132 -65 228q0 148 97 242q113 86 261 86q144 0 306 -138l-80 -129q-155 109 -261 109
q-111 0 -144 -114v-1q0 -1 -1.5 -12t-3.5 -17t-6 -8v-36q0 -55 25 -118q51 -111 145 -111h371l24 -171h-626z" />
    <glyph glyph-name="afii57434" unicode="&#x63a;" horiz-adv-x="1281" 
d="M586 10q-85 0 -149.5 -52t-95.5 -131.5t-31 -172.5q0 -154 102 -275q102 -123 295 -123h512l26 -175h-493q-263 0 -448 185q-166 169 -166 397q0 170 95 307q101 146 311 230q-65 132 -65 228q0 148 97 242q113 86 261 86q144 0 306 -138l-80 -129q-155 109 -261 109
q-111 0 -144 -114v-1q0 -1 -1.5 -12t-3.5 -17t-6 -8v-36q0 -55 25 -118q51 -111 145 -111h371l24 -171h-626zM843 1159q42 0 80.5 -33t38.5 -72q0 -50 -30 -90.5t-75 -40.5q-64 0 -98.5 33.5t-34.5 97.5q0 37 39.5 71t79.5 34z" />
    <glyph glyph-name="afii57440" unicode="&#x640;" horiz-adv-x="498" 
d="M518 10h-531v171h531v-171z" />
    <glyph glyph-name="afii57441" unicode="&#x641;" horiz-adv-x="1714" 
d="M1266 743q-73 0 -114 -32.5t-41 -98.5q0 -82 79 -100l78 -8h193v10q0 103 -66 178q-57 51 -129 51zM1275 916q144 0 245.5 -104t101.5 -249l6 -213q0 -186 -114 -276q-84 -64 -174 -64h-996q-101 0 -195 91q-69 90 -69 212v280h168v-252q0 -91 32.5 -125.5t120.5 -34.5
h917q94 0 124 43q4 12 25 124h-13q-296 0 -397 50q-87 51 -87 222q0 134 84 215t221 81zM1291 1313q42 0 80.5 -33t38.5 -72q0 -50 -30 -90.5t-75 -40.5q-64 0 -98.5 33.5t-34.5 97.5q0 37 39.5 71t79.5 34z" />
    <glyph glyph-name="afii57442" unicode="&#x642;" horiz-adv-x="1428" 
d="M1189 187q0 79 -55 144t-129 65q-65 0 -115 -25l-1 -1h-1q-44 -36 -44 -86q0 -72 37.5 -92t131.5 -20q64 0 165 4h11v11zM697 272q0 129 89 211.5t222 82.5q147 0 246 -110q98 -108 98 -256v-168l-4 -71l-4 -82q-29 -185 -172 -294q-132 -93 -284 -93h-293
q-195 0 -322 144q-128 146 -128 350v252h157v-259q0 -137 88 -232t221 -95h266q126 0 220 94t94 253v10h-11q-31 -1 -178 -1q-101 0 -160 16q-145 49 -145 248zM851 967q47 0 83 -36.5t36 -82.5q0 -41 -33.5 -79t-72.5 -38q-62 0 -96.5 34t-34.5 97q0 37 39 71t79 34z
M1144 967q47 0 83.5 -36.5t36.5 -82.5q0 -41 -33.5 -79t-72.5 -38q-63 0 -97.5 34t-34.5 97q0 39 38.5 72t79.5 33z" />
    <glyph glyph-name="afii57443" unicode="&#x643;" horiz-adv-x="1633" 
d="M769 897q0 -66 59 -66q55 0 165 60l48 -92l-349 -175l-38 88l87 46q-73 66 -73 134q0 72 52.5 124.5t124.5 54.5q44 -9 109 -36l-44 -93q-42 30 -69 30q-28 0 -43 -16l9 -13l-12 9q-26 -33 -26 -55zM1579 296q0 -136 -79 -211t-217 -75h-933q-108 0 -188 90
q-73 91 -73 213v280h171v-252q0 -89 32.5 -124.5t118.5 -35.5h859q87 0 123 52l1 1v1q21 43 21 142v844h164v-925z" />
    <glyph glyph-name="afii57444" unicode="&#x644;" horiz-adv-x="1400" 
d="M286 -14q0 -121 98 -203t227 -82h244q109 0 199 81q113 86 113 204v1235h172v-1195q0 -226 -147 -364q-145 -137 -324 -137h-295q-171 0 -316 153q-145 152 -145 334v388h174v-414z" />
    <glyph glyph-name="afii57445" unicode="&#x645;" horiz-adv-x="1204" 
d="M984 332q0 179 -38 214q-49 44 -276 44h-11v-277q0 -57 52 -100q56 -40 114 -40q159 0 159 159zM92 366q0 175 99 282.5t269 107.5h392q183 0 258 -128q39 -77 39 -241q0 -5 -2 -67q0 -137 -98 -226q-95 -89 -224 -89q-130 0 -228 89q-101 89 -101 252v243l-44 3
q-63 0 -129 -58q-63 -57 -63 -141v-868h-168v841z" />
    <glyph glyph-name="afii57446" unicode="&#x646;" horiz-adv-x="1381" 
d="M1309 32q0 -221 -147 -377q-138 -130 -324 -130h-296q-175 0 -313 148q-137 148 -137 339v388h168v-414q0 -110 89 -201q90 -92 231 -92h245q122 0 219 82t97 211v607h168v-561zM837 880q0 -41 -33 -80t-71 -39q-58 0 -95 31.5t-37 86.5q0 48 35 84t83 36q47 0 82.5 -36
t35.5 -83z" />
    <glyph glyph-name="afii57447" unicode="&#x647;" horiz-adv-x="863" 
d="M442 151q75 0 129.5 53t54.5 126q0 66 -30 103l-164 172q-103 -103 -148 -162l-2 -1l-21 -42l-13 -67v-1q0 -39 44 -110v-3q59 -68 150 -68zM709 555q88 -110 88 -234q0 -126 -107 -230t-251 -104q-147 0 -249 106q-102 107 -102 253q0 103 61 207l60 76l102 99l-57 67
l116 116z" />
    <glyph glyph-name="afii57448" unicode="&#x648;" horiz-adv-x="885" 
d="M652 393q0 92 -40 143t-122 51q-89 0 -121.5 -51t-32.5 -158q0 -120 60 -160q58 -37 246 -37h10v212zM820 -26q0 -164 -136 -306q-137 -143 -334 -143h-236l-24 168h230q147 0 240 93q92 92 92 214v10h-10q-218 0 -338 60q-149 72 -149 300q0 230 113 329q74 59 222 59
q212 0 290 -174q40 -105 40 -369v-241z" />
    <glyph glyph-name="afii57449" unicode="&#x649;" horiz-adv-x="1373" 
d="M692 350q0 132 97.5 232t228.5 100h224l9 -157h-225q-102 0 -152 -101l-1 -1q-24 -86 -24 -221v-11h11q253 0 344 -44q97 -52 97 -209q0 -124 -36 -196l-1 -1q-21 -83 -105 -162q-134 -128 -321 -128h-296q-179 0 -314 147q-131 143 -131 340v383h159v-408
q0 -131 115 -228q95 -67 209 -67h250q103 0 199 69q105 90 105 192q0 105 -80 131q-78 24 -362 24v316z" />
    <glyph glyph-name="afii57450" unicode="&#x64a;" horiz-adv-x="1373" 
d="M692 350q0 132 97.5 232t228.5 100h224l9 -157h-225q-102 0 -152 -101l-1 -1q-24 -86 -24 -221v-11h11q253 0 344 -44q97 -52 97 -209q0 -124 -36 -196l-1 -1q-21 -83 -105 -162q-134 -128 -321 -128h-296q-179 0 -314 147q-131 143 -131 340v383h159v-408
q0 -131 115 -228q95 -67 209 -67h250q103 0 199 69q105 90 105 192q0 105 -80 131q-78 24 -362 24v316zM517 -705q47 0 83 -36.5t36 -82.5q0 -41 -33.5 -79t-72.5 -38q-62 0 -96.5 34t-34.5 97q0 37 39 71t79 34zM810 -705q47 0 83.5 -36.5t36.5 -82.5q0 -41 -33.5 -79
t-72.5 -38q-63 0 -97.5 34t-34.5 97q0 39 38.5 72t79.5 33z" />
    <glyph glyph-name="afii57451" unicode="&#x64b;" 
d="M-232 77l437 113v-61l-437 -111v59zM-232 228l437 113v-61l-437 -111v59z" />
    <glyph glyph-name="afii57452" unicode="&#x64c;" 
d="M-111 341q0 62 41 106t102 44q57 0 100 -41t43 -97v-7q0 -104 -77 -154l-333 -188l-40 66q18 10 57 36q29 19 29 49q0 37 -43 40h-7q-39 0 -90 -10l-9 68q41 7 80 7q66 0 96 -25.5t33 -85.5l107 65q-44 23 -66.5 51t-22.5 76zM104 342q0 29 -22 51t-50 22
q-30 0 -51 -21.5t-21 -51.5q0 -29 21.5 -50t50.5 -21q30 0 51 20.5t21 50.5z" />
    <glyph glyph-name="afii57453" unicode="&#x64d;" 
d="M-232 -75l437 114v-61l-437 -111v58zM-232 77l437 113v-61l-437 -111v59z" />
    <glyph glyph-name="afii57454" unicode="&#x64e;" 
d="M-232 77l437 113v-61l-437 -111v59z" />
    <glyph glyph-name="afii57455" unicode="&#x64f;" 
d="M-108 354q0 61 42 105.5t102 44.5q57 0 99.5 -41.5t42.5 -97.5v-6q0 -103 -76 -154l-334 -188l-40 66l254 143l-17 9q-73 37 -73 119zM107 355q0 29 -21 50.5t-50 21.5t-51 -21.5t-22 -50.5q0 -30 21.5 -50.5t51.5 -20.5t50.5 21t20.5 50z" />
    <glyph glyph-name="afii57456" unicode="&#x650;" 
d="M-232 77l437 113v-61l-437 -111v59z" />
    <glyph glyph-name="afii57457" unicode="&#x651;" 
d="M-86 80q52 0 52 40v103h60v-103q0 -44 58 -44h10q39 2 39 37v110h63v-99q-3 -52 -19 -68h-1q-30 -35 -77 -35h-5q-52 0 -96 44q-14 -26 -33 -37t-55 -11q-112 0 -112 107v99h60v-104q4 -39 56 -39z" />
    <glyph glyph-name="afii57458" unicode="&#x652;" 
d="M-181 206q0 79 52 136.5t127 57.5h8q74 0 126 -58t52 -135q0 -79 -53 -135t-130 -56t-129.5 55.5t-52.5 134.5zM119 204q0 48 -34.5 85.5t-81.5 37.5q-45 0 -79.5 -38t-34.5 -85q0 -49 33.5 -85t80.5 -36q48 0 82 36.5t34 84.5z" />
    <glyph glyph-name="afii57375" unicode="&#x653;" horiz-adv-x="946" 
d="M804 1369h-396q-75 0 -113 -38q-37 -37 -69 -98l-130 48q61 143 105 176q44 36 83 49.5t113 14.5h407v-152z" />
    <glyph glyph-name="uni0654" unicode="&#x654;" 
d="M-30 1336q0 -33 27 -50t65 -17h1q44 0 146 40l29 -69l-364 -132l-20 65l94 36q-58 54 -58 100q0 71 53 125t122 56q56 0 106 -44l-43 -63q-29 26 -70 26q-36 0 -62 -20t-26 -53z" />
    <glyph glyph-name="uni0655" unicode="&#x655;" 
d="M-32 1335q0 -33 27 -50t65 -17h1q44 0 146 40l29 -69l-364 -132l-20 65l94 36q-58 54 -58 100q0 71 53 125t122 56q56 0 106 -44l-43 -63q-29 26 -70 26q-36 0 -62 -20t-26 -53z" />
    <glyph glyph-name="uni0656" unicode="&#x656;" 
d="M38 13h-67v275h67v-275z" />
    <glyph glyph-name="afii57392.001" unicode="&#x660;" horiz-adv-x="633" 
d="M322 637q-45 0 -78.5 -33t-33.5 -77t33.5 -76.5t78.5 -32.5q50 0 81 32.5t31 75.5q0 45 -33.5 78t-78.5 33zM517 527q0 -77 -58.5 -133t-136.5 -56t-135.5 56t-57.5 133q0 78 57.5 133t135.5 55t136.5 -56t58.5 -132z" />
    <glyph glyph-name="afii57393.001" unicode="&#x661;" horiz-adv-x="579" 
d="M237 588q0 169 -20 299t-69 295l163 54l63 -250q30 -204 30 -398v-578h-167v578z" />
    <glyph glyph-name="afii57394.001" unicode="&#x662;" horiz-adv-x="1041" 
d="M576 805q69 0 114 46t45 117v1l-28 219l158 52q33 -230 33 -271l1 -71q0 -129 -95 -183q-97 -56 -157 -56h-49q-59 0 -157 58l3 -703h-171v549q0 391 -85 619l163 57l72 -307q30 -127 153 -127z" />
    <glyph glyph-name="afii57395.001" unicode="&#x663;" horiz-adv-x="1314" 
d="M458 805q67 0 116 48t49 115v1l-38 219l162 59q41 -225 41 -325l-4 -54q46 -70 123 -70q72 0 114 47.5t42 122.5v1l-29 219l161 51l29 -247l2 -53q0 -99 -72 -185q-85 -76 -192 -76h-1q-5 -1 -23 -1q-129 0 -204 126l-13 20l-7 -22q-22 -71 -66 -104.5t-126 -33.5
q-111 0 -198 66l3 -715h-168v549q0 351 -93 619l168 57l70 -307q33 -127 154 -127z" />
    <glyph glyph-name="afii57396" unicode="&#x664;" horiz-adv-x="1104" 
d="M89 328q0 118 76.5 215.5t182.5 157.5q-77 57 -130.5 134.5t-53.5 169.5v18q0 115 102 205l3 4v4q103 85 220 85q112 0 251 -56q-24 -47 -45 -133q-112 41 -177 41q-76 0 -129 -46t-53 -119q0 -81 51.5 -137t128.5 -57h7q72 0 230 85l58 -139q-320 -160 -399 -217
q-88 -65 -115 -102q-29 -38 -32 -85v-1q0 -70 48 -118.5t116 -63.5h1l451 -8l-9 -155l-406 6h-1q-6 0 -13.5 -0.5t-11.5 -1t-8.5 -0.5h-6.5q-141 0 -238.5 89t-97.5 225z" />
    <glyph glyph-name="afii57397" unicode="&#x665;" horiz-adv-x="1335" 
d="M645 156q52 0 90.5 2.5t81 9.5t71.5 21.5t54 36.5t37.5 56t12.5 79q0 101 -90 223q-77 103 -299 294q-159 -181 -231 -313q-60 -114 -60 -202q0 -44 15 -95l1 -1l1 -2q43 -61 119 -85t197 -24zM1173 323q0 -133 -78.5 -211.5t-208.5 -98.5q-138 -20 -197 -20
q-179 0 -298.5 33.5t-206.5 117.5q-53 83 -53 169q0 102 25 171q42 117 138.5 264t169.5 220l6 17l-5 44l-12 21l-14 9l79 98q655 -498 655 -834z" />
    <glyph glyph-name="afii57398" unicode="&#x666;" horiz-adv-x="1026" 
d="M475 1024q106 3 158 59t86 167l166 -24q-104 -303 -104 -1073v-79q0 -30 2 -68l-171 10q-7 83 -7 168v139q6 289 38 577q-114 -60 -215 -60q-96 0 -179.5 52t-116.5 125q-33 72 -33 123t5 81h185q-3 -23 -3 -39q0 -158 189 -158z" />
    <glyph glyph-name="afii57399.001" unicode="&#x667;" horiz-adv-x="1288" 
d="M147 1171l77 34l61 41q171 -287 238 -447q68 -160 140 -427l11 -40l10 41q66 289 120 407q15 29 79 164t101 200q2 4 59 102l65 -41l72 -37q-207 -343 -302 -649q-86 -273 -143 -497h-131q-161 683 -457 1149z" />
    <glyph glyph-name="afii57400.001" unicode="&#x668;" horiz-adv-x="1288" 
d="M1168 101l-77 -35l-61 -40q-173 291 -238 446q-67 159 -140 428l-12 40l-9 -41q-52 -223 -94 -342.5t-132 -290.5q-54 -104 -133 -240l-65 40l-74 38q210 346 304 650q88 279 143 497h129q164 -687 459 -1150z" />
    <glyph glyph-name="afii57401.001" unicode="&#x669;" horiz-adv-x="1066" 
d="M328 947q0 -83 34.5 -121t115.5 -38h1q98 0 180 61v7q-3 43 -7 73t-15 61.5t-28 50t-45 30.5t-67 12h-2q-99 0 -134 -49q-33 -46 -33 -87zM841 14h-166v661l-127 -41q-61 -11 -113 -11q-139 0 -203 82q-68 68 -68 195q0 187 101 270q103 83 209 83q102 0 201 -55
q92 -50 125 -182q28 -119 34.5 -179.5t6.5 -208.5v-614z" />
    <glyph glyph-name="afii57381" unicode="&#x66a;" horiz-adv-x="1083" 
d="M905 124q0 -45 -33 -77.5t-79 -32.5q-45 0 -77 32.5t-32 77.5q0 44 32.5 77.5t76.5 33.5q45 0 78.5 -33t33.5 -78zM344 1110q0 -44 -34 -77t-78 -33t-77 33t-33 77t33.5 77.5t76.5 33.5q45 0 78.5 -33t33.5 -78zM946 1234l-678 -1229h-137l670 1229h145z" />
    <glyph glyph-name="afii57461" unicode="&#x66b;" horiz-adv-x="989" 
d="M900 596l-678 -1228h-137l670 1228h145z" />
    <glyph glyph-name="afii57388.001" unicode="&#x66c;" horiz-adv-x="296" 
d="M128 742q0 20 15.5 40t34.5 20q40 0 40 -64q0 -72 -51 -185q-15 -43 -24 -46q50 97 50 165v8q-34 9 -49.5 21t-15.5 41z" />
    <glyph glyph-name="afii63167" unicode="&#x66d;" horiz-adv-x="938" 
d="M556 602l322 3v-82l-314 2l237 -229l-60 -60l-234 243l5 -328h-84l5 328l-235 -243l-59 60l242 230l-318 -3v82l316 -3l-221 217l58 61l217 -220l-5 318h84l-5 -322l215 224l59 -61z" />
    <glyph glyph-name="uni0670" unicode="&#x670;" 
d="M38 13h-67v275h67v-275z" />
    <glyph glyph-name="uni0671" unicode="&#x671;" horiz-adv-x="476" 
d="M391 10h-171v1211h171v-1211zM396 1443q-3 50 -42 50q-17 0 -46 -19l-83 -73h171v42zM354 1534q44 0 62.5 -25.5t20.5 -76.5l-1 -72h-315v41h51l120 104q35 29 62 29z" />
    <glyph glyph-name="uni0672" unicode="&#x672;" horiz-adv-x="476" 
d="M391 10h-171v1211h171v-1211zM219 1550q0 -33 27 -50t65 -17h1q44 0 146 40l29 -69l-364 -132l-20 65l94 36q-58 54 -58 100q0 71 53 125t122 56q56 0 106 -44l-43 -63q-29 26 -70 26q-36 0 -62 -20t-26 -53z" />
    <glyph glyph-name="uni0673" unicode="&#x673;" horiz-adv-x="476" 
d="M391 10h-171v1211h171v-1211zM221 -283q0 -33 27 -50t65 -17h1q44 0 146 40l29 -69l-364 -132l-20 65l94 36q-58 54 -58 100q0 71 53 125t122 56q56 0 106 -44l-43 -63q-29 26 -70 26q-36 0 -62 -20t-26 -53z" />
    <glyph glyph-name="uni0675" unicode="&#x675;" horiz-adv-x="332" 
d="M391 10h-171v1211h171v-1211zM235 2086q0 -33 27 -50t65 -17h1q44 0 146 40l29 -69l-364 -132l-20 65l94 36q-58 54 -58 100q0 71 53 125t122 56q56 0 106 -44l-43 -63q-29 26 -70 26q-36 0 -62 -20t-26 -53z" />
    <glyph glyph-name="uni0676" unicode="&#x676;" horiz-adv-x="885" 
d="M652 393q0 92 -40 143t-122 51q-89 0 -121.5 -51t-32.5 -158q0 -120 60 -160q58 -37 246 -37h10v212zM820 -26q0 -164 -136 -306q-137 -143 -334 -143h-236l-24 168h230q147 0 240 93q92 92 92 214v10h-10q-218 0 -338 60q-149 72 -149 300q0 230 113 329q74 59 222 59
q212 0 290 -174q40 -105 40 -369v-241zM422 1111q0 -33 27 -50t65 -17h1q44 0 146 40l29 -69l-364 -132l-20 65l94 36q-58 54 -58 100q0 71 53 125t122 56q56 0 106 -44l-43 -63q-29 26 -70 26q-36 0 -62 -20t-26 -53z" />
    <glyph glyph-name="uni0678" unicode="&#x678;" horiz-adv-x="1373" 
d="M692 350q0 132 97.5 232t228.5 100h224l9 -157h-225q-102 0 -152 -101l-1 -1q-24 -86 -24 -221v-11h11q253 0 344 -44q97 -52 97 -209q0 -124 -36 -196l-1 -1q-21 -83 -105 -162q-134 -128 -321 -128h-296q-179 0 -314 147q-131 143 -131 340v383h159v-408
q0 -131 115 -228q95 -67 209 -67h250q103 0 199 69q105 90 105 192q0 105 -80 131q-78 24 -362 24v316zM303 794q0 -33 27 -50t65 -17h1q44 0 146 40l29 -69l-364 -132l-20 65l94 36q-58 54 -58 100q0 71 53 125t122 56q56 0 106 -44l-43 -63q-29 26 -70 26q-36 0 -62 -20
t-26 -53z" />
    <glyph glyph-name="afii57506" unicode="&#x67e;" horiz-adv-x="1703" 
d="M353 10q-106 0 -185 95t-79 208v280h171v-252q0 -69 18 -106v-1h1q35 -53 132 -53h898q86 0 119 35.5t33 124.5v252h172v-280q0 -119 -83 -211q-84 -92 -184 -92h-1013zM1004 -191q47 0 83.5 -36t36.5 -82q0 -48 -36 -83.5t-84 -35.5t-83 35.5t-35 83.5q0 47 35 82.5
t83 35.5zM813 -309q0 -47 -36.5 -83t-82.5 -36q-48 0 -82.5 35t-34.5 84q0 47 35 82.5t82 35.5t83 -35.5t36 -82.5zM961 -601q0 -47 -36.5 -83t-82.5 -36q-48 0 -82.5 35t-34.5 84q0 47 35.5 83t81.5 36t82.5 -36t36.5 -83z" />
    <glyph glyph-name="afii57507" unicode="&#x686;" horiz-adv-x="1293" 
d="M1309 -919h-513q-298 0 -485 214q-138 168 -138 370v38l5 43q29 262 270 389l602 329q-54 95 -139 111q-80 15 -506 15l-25 166h453q185 0 286.5 -98t102.5 -280l-624 -352q-263 -148 -263 -367q0 -159 132 -281q131 -122 279 -122h549zM1034 -87q47 0 83.5 -36t36.5 -82
q0 -48 -36 -83.5t-84 -35.5t-83 35.5t-35 83.5q0 47 35 82.5t83 35.5zM843 -205q0 -47 -36.5 -83t-82.5 -36q-48 0 -82.5 35t-34.5 84q0 47 35 82.5t82 35.5t83 -35.5t36 -82.5zM991 -497q0 -47 -36.5 -83t-82.5 -36q-48 0 -82.5 35t-34.5 84q0 47 35.5 83t81.5 36t82.5 -36
t36.5 -83z" />
    <glyph glyph-name="afii57508" unicode="&#x698;" horiz-adv-x="890" 
d="M262 -299q207 0 311 129q53 67 53 156v607h179v-558q0 -204 -135 -357t-335 -153h-245l-29 176h201zM736 1031q47 0 83.5 -36.5t36.5 -82.5q0 -48 -36 -83t-84 -35t-83 35t-35 83q0 47 35.5 83t82.5 36zM545 912q0 -47 -36 -82.5t-83 -35.5q-48 0 -82.5 35t-34.5 83
q0 47 35.5 83t81.5 36t82.5 -36.5t36.5 -82.5zM693 1204q0 -46 -36.5 -82.5t-82.5 -36.5q-47 0 -82 35.5t-35 83.5q0 47 35.5 83t81.5 36t82.5 -36.5t36.5 -82.5z" />
    <glyph glyph-name="afii62888" unicode="&#x6a1;" horiz-adv-x="1714" 
d="M1266 743q-73 0 -114 -32.5t-41 -98.5q0 -82 79 -100l78 -8h193v10q0 103 -66 178q-57 51 -129 51zM1275 916q144 0 245.5 -104t101.5 -249l6 -213q0 -186 -114 -276q-84 -64 -174 -64h-996q-101 0 -195 91q-69 90 -69 212v280h168v-252q0 -91 32.5 -125.5t120.5 -34.5
h917q94 0 124 43q4 12 25 124h-13q-296 0 -397 50q-87 51 -87 222q0 134 84 215t221 81z" />
    <glyph glyph-name="afii57567" unicode="&#x6a9;" horiz-adv-x="1688" 
d="M350 10q-111 0 -186 92t-75 211v280h171v-252q0 -89 32.5 -124.5t118.5 -35.5h920q111 0 111 99q0 47 -33 80l-500 519l-42 178l748 282l22 -162l-566 -216l466 -489q82 -88 85 -214q0 -77 -58 -150q-72 -98 -227 -98h-987z" />
    <glyph glyph-name="afii57509" unicode="&#x6af;" horiz-adv-x="1682" 
d="M350 10q-111 0 -186 92t-75 211v280h171v-252q0 -89 32.5 -124.5t118.5 -35.5h920q111 0 111 99q0 47 -33 80l-499 518l-11 194l719 263l19 -158l-566 -216l466 -489q85 -91 85 -214q0 -71 -58 -150q-72 -98 -227 -98h-987zM1598 1457l-702 -252l-8 69l705 248z" />
    <glyph glyph-name="afii57470" unicode="&#x6be;" horiz-adv-x="1222" 
d="M142 455q0 125 86 214t209 89q122 0 226 -98l14 15l-117 120l130 116q462 -449 462 -658q0 -68 -46 -151q-105 -169 -251 -169q-148 0 -395 146l-5 2l-6 -2q-96 -51 -153 -57l-118 -8l-202 -4v171h277q-69 91 -90 146l-18 60zM975 239v3q0 122 -259 385l-15 -15
q57 -63 57 -180q0 -178 -110 -239l-16 -9q112 -68 199 -68q76 0 121 51l1 2v1q14 31 22 69zM595 442q0 67 -52.5 115t-122.5 48h-1q-117 -18 -123 -149v-1q0 -130 160 -193l4 -2l4 2q131 55 131 180z" />
    <glyph glyph-name="uni06C0" unicode="&#x6c0;" horiz-adv-x="863" 
d="M442 151q75 0 129.5 53t54.5 126q0 66 -30 103l-164 172q-103 -103 -148 -162l-2 -1l-21 -42l-13 -67v-1q0 -39 44 -110v-3q59 -68 150 -68zM709 555q88 -110 88 -234q0 -126 -107 -230t-251 -104q-147 0 -249 106q-102 107 -102 253q0 103 61 207l60 76l102 99l-57 67
l116 116zM354 1275q0 -33 27 -50t65 -17h1q44 0 146 40l29 -69l-364 -132l-20 65l94 36q-58 54 -58 100q0 71 53 125t122 56q56 0 106 -44l-43 -63q-29 26 -70 26q-36 0 -62 -20t-26 -53z" />
    <glyph glyph-name="afii57555" unicode="&#x6cc;" horiz-adv-x="1373" 
d="M692 350q0 132 97.5 232t228.5 100h224l9 -157h-225q-102 0 -152 -101l-1 -1q-24 -86 -24 -221v-11h11q253 0 344 -44q97 -52 97 -209q0 -124 -36 -196l-1 -1q-21 -83 -105 -162q-134 -128 -321 -128h-296q-179 0 -314 147q-131 143 -131 340v383h159v-408
q0 -131 115 -228q95 -67 209 -67h250q103 0 199 69q105 90 105 192q0 105 -80 131q-78 24 -362 24v316z" />
    <glyph glyph-name="afii57534" unicode="&#x6d5;" horiz-adv-x="863" 
d="M442 151q75 0 129.5 53t54.5 126q0 66 -30 103l-164 172q-103 -103 -148 -162l-2 -1l-21 -42l-13 -67v-1q0 -39 44 -110v-3q59 -68 150 -68zM709 555q88 -110 88 -234q0 -126 -107 -230t-251 -104q-147 0 -249 106q-102 107 -102 253q0 103 61 207l60 76l102 99l-57 67
l116 116z" />
    <glyph glyph-name="uni06DF" unicode="&#x6df;" 
d="M-52 1200q0 21 15.5 37t36.5 16t36.5 -16t15.5 -37q0 -22 -15 -37t-37 -15t-37 15t-15 37z" />
    <glyph glyph-name="uni06EA" unicode="&#x6ea;" 
d="M102 -147l-102 102l-102 -103l102 -102zM126 -147l-127 -127l-125 126l127 126z" />
    <glyph glyph-name="uni06EB" unicode="&#x6eb;" 
d="M102 1279l-102 102l-102 -103l102 -102zM126 1279l-127 -127l-125 126l127 126z" />
    <glyph glyph-name="uni06EC" unicode="&#x6ed;" 
 />
    <glyph glyph-name="afii57392" unicode="&#x6f0;" horiz-adv-x="633" 
d="M321 637q-45 0 -78 -32.5t-33 -77.5q0 -44 33.5 -76.5t78.5 -32.5q50 0 81 32.5t31 75.5q0 45 -33.5 78t-78.5 33h-1zM517 527q0 -77 -58.5 -133t-136.5 -56t-135.5 56t-57.5 133q0 78 57.5 133t135.5 55t136.5 -56t58.5 -132z" />
    <glyph glyph-name="afii57393" unicode="&#x6f1;" horiz-adv-x="579" 
d="M237 588q0 169 -20 299t-69 295l163 54l63 -250q30 -204 30 -398v-578h-167v578z" />
    <glyph glyph-name="afii57394" unicode="&#x6f2;" horiz-adv-x="1041" 
d="M576 805q69 0 114 46t45 117v1l-28 219l158 52q33 -230 33 -271l1 -71q0 -129 -95 -183q-97 -56 -157 -56h-49q-59 0 -157 58l3 -703h-171v549q0 391 -85 619l163 57l72 -307q30 -127 153 -127z" />
    <glyph glyph-name="afii57395" unicode="&#x6f3;" horiz-adv-x="1314" 
d="M458 805q67 0 116 48t49 115v1l-38 219l162 59q41 -225 41 -325l-4 -54q46 -70 123 -70q72 0 114 47.5t42 122.5v1l-29 219l161 51l29 -247l2 -53q0 -99 -72 -185q-85 -76 -192 -76h-1q-5 -1 -23 -1q-129 0 -204 126l-13 20l-7 -22q-22 -71 -66 -104.5t-126 -33.5
q-111 0 -198 66l3 -715h-168v549q0 351 -93 619l168 57l70 -307q33 -127 154 -127z" />
    <glyph glyph-name="afii62843" unicode="&#x6f4;" horiz-adv-x="1288" 
d="M698 1017q-11 -23 -21 -33v-1q-18 -41 -18 -72v-1l9 -47v-1q30 -89 147 -89q111 0 267 81l52 -137q-215 -91 -377 -91q-152 0 -347 83v-695h-163v562q0 144 -15 235q-5 33 -10 76.5t-10.5 71.5t-17.5 63l-41 160l163 57l48 -197l36 -173l117 -62v18q0 127 16.5 190
t69.5 127q94 109 245 109q109 0 228 -55l-58 -146q-77 52 -161 52q-94 0 -158 -82l-1 -2v-1z" />
    <glyph glyph-name="afii62844" unicode="&#x6f5;" horiz-adv-x="1493" 
d="M537 203q71 0 115.5 53t44.5 128v1l-7 56h170l6 -23l4 -38l-4 -70q0 -22 -20 -64q65 -41 140 -41q117 0 168 87v1q19 42 19 107q0 62 -54 165q-105 190 -397 429l-7 7l-6 -8q-343 -361 -343 -596q0 -85 45.5 -139.5t125.5 -54.5zM484 16q-133 0 -215.5 104.5t-82.5 249.5
q0 234 189 467l213 264l-74 54l109 130q729 -552 729 -939q0 -141 -107 -242q-100 -85 -247 -85q-152 0 -247 75l-7 -3q-134 -75 -260 -75z" />
    <glyph glyph-name="afii62845" unicode="&#x6f6;" horiz-adv-x="1117" 
d="M531 605q-157 0 -260.5 90t-103.5 239q0 178 149 292q86 49 184 49q94 0 221 -62l-51 -155q-86 44 -161 44q-65 0 -117.5 -51.5t-52.5 -116.5q0 -43 21 -79q44 -87 165 -87q119 0 258 91l139 -105q-59 -56 -141 -149l-159 -198q-162 -215 -276 -415l-150 93
q94 172 356 520h-21z" />
    <glyph glyph-name="afii57399" unicode="&#x6f7;" horiz-adv-x="1288" 
d="M147 1171l77 34l61 41q171 -287 238 -447q68 -160 140 -427l11 -40l10 41q66 289 120 407q15 29 79 164t101 200q2 4 59 102l65 -41l72 -37q-207 -343 -302 -649q-86 -273 -143 -497h-131q-161 683 -457 1149z" />
    <glyph glyph-name="afii57400" unicode="&#x6f8;" horiz-adv-x="1288" 
d="M1168 101l-77 -35l-61 -40q-173 291 -238 446q-67 159 -140 428l-12 40l-9 -41q-52 -223 -94 -342.5t-132 -290.5q-54 -104 -133 -240l-65 40l-74 38q210 346 304 650q88 279 143 497h129q164 -687 459 -1150z" />
    <glyph glyph-name="afii57401" unicode="&#x6f9;" horiz-adv-x="1066" 
d="M328 947q0 -83 34.5 -121t115.5 -38h1q98 0 180 61v7q-3 43 -7 73t-15 61.5t-28 50t-45 30.5t-67 12h-2q-99 0 -134 -49q-33 -46 -33 -87zM841 14h-166v661l-127 -41q-61 -11 -113 -11q-139 0 -203 82q-68 68 -68 195q0 187 101 270q103 83 209 83q102 0 201 -55
q92 -50 125 -182q28 -119 34.5 -179.5t6.5 -208.5v-614z" />
    <glyph glyph-name="afii59759" unicode="&#xe4f;" horiz-adv-x="1035" 
d="M518 322q-34 0 -59.5 25.5t-25.5 59.5t25.5 59t59.5 25q36 0 61 -24.5t25 -59.5t-25.5 -60t-60.5 -25zM518 698q-122 0 -202.5 -84.5t-80.5 -208.5t80.5 -208t202.5 -84q123 0 202.5 84t79.5 208q0 126 -79.5 209.5t-202.5 83.5zM927 406q0 -168 -120.5 -288.5
t-288.5 -120.5q-169 0 -289 120t-120 289q0 167 121 288t288 121q169 0 289 -120t120 -289z" />
    <glyph glyph-name="afii59760" unicode="&#xe50;" horiz-adv-x="1035" 
d="M518 649q-127 0 -205 -73t-78 -196t78 -193.5t206 -70.5q126 0 203.5 71t77.5 193q0 123 -78 196t-204 73zM518 -3q-177 0 -293 106.5t-116 277.5q0 170 116.5 277t292.5 107t292.5 -107t116.5 -277q0 -172 -116 -278t-293 -106z" />
    <glyph glyph-name="zerowidthnonjoiner" unicode="&#x200c;" 
d="M20 1072v-1292h-40v1292h40z" />
    <glyph glyph-name="zerowidthjoiner" unicode="&#x200d;" 
d="M20 -220h-40v1181l-123 -125l-26 27l144 142l-144 141l26 26l143 -143l143 143l26 -26l-144 -141l144 -142l-26 -27l-123 125v-1181z" />
    <glyph glyph-name="lefttorightmark" unicode="&#x200e;" 
d="M346 1006l-168 -165l-26 26l127 120h-260v-1207h-39v1246h299l-127 120l26 26z" />
    <glyph glyph-name="righttoleftmark" unicode="&#x200f;" 
d="M19 -220h-39v1207h-260l127 -120l-27 -26l-168 165l168 166l27 -26l-127 -120h299v-1246z" />
    <glyph glyph-name="endash" unicode="&#x2013;" horiz-adv-x="364" 
d="M354 140h-344v46h344v-46z" />
    </font>
</defs>
</svg>
