<?xml version="1.0" standalone="no"?>
<!DOCTYPE svg PUBLIC "-//W3C//DTD SVG 1.1//EN" "http://www.w3.org/Graphics/SVG/1.1/DTD/svg11.dtd" >
<svg xmlns="http://www.w3.org/2000/svg">
<metadata>
This is a custom SVG font generated by IcoMoon.
<iconset grid="48"></iconset>
</metadata>
<defs>
<font id="cmsmelli" horiz-adv-x="1536" >
<font-face units-per-em="1536" ascent="1472" descent="-64" />
<missing-glyph horiz-adv-x="1536" />
<glyph class="hidden" unicode="&#xf000;" d="M0,1472L 1536 -64L0 -64 z" horiz-adv-x="0" />
<glyph unicode="&#xe000;" d="M 96,704c 53.040,0, 96-42.96, 96-96l0-384 c0-53.040-42.96-96-96-96L0,128 l0-192 l 768,0 l0,192 l-95.616,0 C 619.488,128, 576,170.96, 576,224l-0.192,672L0,896 
			l0-192 L 96,704 zM 192,1280A192,192 1620 1 0 576,1280A192,192 1620 1 0 192,1280z" horiz-adv-x="768"  />
<glyph unicode="&#xe001;" d="M 768,1328C 423.36,1328, 144,1048.64, 144,704s 279.36-624, 624-624s 624,279.36, 624,624S 1112.64,1328, 768,1328z M 768,176C 476.4,176, 240,412.4, 240,704S 476.4,1232, 768,1232
			s 528-236.4, 528-528S 1059.6,176, 768,176z M 700.416,887.648c 20.112,10.608, 30.144,23.856, 30.144,39.744c0,10.032-3.408,18.384-10.272,25.008
			c-6.912,6.624-15.6,9.936-26.16,9.936c-26.448,0-62.88-15.36-109.344-46.032c-54.96-36-98.64-79.776-131.088-131.376
			c-32.448-51.6-48.72-102.576-48.72-152.88c0-23.808, 4.512-47.472, 13.488-71.040c 8.976-23.52, 21.12-43.488, 36.432-59.952
			c 32.208-35.472, 70.752-53.184, 115.632-53.184c 46.992,0, 85.296,16.176, 114.864,48.48c 12.144,13.2, 21.744,28.992, 28.944,47.232
			c 7.104,18.288, 10.704,36.384, 10.704,54.384c0,38.112-10.56,70.656-31.632,97.68s-48.864,42.864-83.136,47.616l-12.672,0.768l-9.504,1.632
			c-15.792,2.112-23.76,8.208-23.76,18.24c0,10.608, 10.32,27.264, 30.96,50.016C 616.8,837.104, 651.84,861.728, 700.416,887.648z M 1079.52,887.648
			c 20.16,10.608, 30.192,23.856, 30.192,39.744c0,10.032-3.408,18.384-10.32,25.008c-6.864,6.624-15.6,9.936-26.208,9.936
			c-26.448,0-62.976-15.36-109.536-46.032c-55.008-36-98.928-79.776-131.712-131.376s-49.2-102.576-49.2-152.88c0-23.808, 4.512-47.472, 13.488-71.040
			c 9.024-23.52, 21.12-43.488, 36.48-59.952c 32.304-35.472, 71.136-53.184, 116.64-53.184c 46.608,0, 84.96,16.176, 115.104,48.48
			c 12.144,13.2, 21.84,28.848, 28.992,46.848c 7.104,18.048, 10.704,36.288, 10.704,54.816c0,38.112-10.752,70.512-32.16,97.248
			c-21.456,26.736-49.392,42.72-83.856,48l-11.952,0.768l-10.32,1.632c-15.84,2.112-23.808,8.208-23.808,18.24c0,10.608, 10.608,27.264, 31.776,50.016
			C 996.048,838.208, 1031.28,862.784, 1079.52,887.648z"  />
<glyph unicode="&#xe002;" d="M 288,1184l-288-288l 768-768l 768,768l-288,288L 768,704L 288,1184z"  />
<glyph unicode="&#xe003;" d="M 1536,128L 1536,1280L 960,704L 960,128 		zM 576,128L 576,1280L0,704L0,128 		z"  />
<glyph unicode="&#xe004;" d="M 1344,896L 1344,1088 l-240.192,0 l 48,384l-192,0 l-48-384l-383.904,0 l 48,384l-192,0 l-48-384L0,1088 l0-192 l 311.904,0 L 264,512L0,512 l0-192 l 240,0 l-48-384l 192,0 l 48,384l 383.904,0 l-48-384L 960-64 
		l 48,384l 336,0 l0,192 l-312,0 l 47.808,384L 1344,896 z M 839.904,512L 456,512 l 47.904,384l 383.904,0 L 839.904,512z" horiz-adv-x="1344"  />
<glyph unicode="&#xe005;" d="M 768-64C 343.855-64,0,279.855,0,704S 343.855,1472, 768,1472s 768-343.855, 768-768S 1192.145-64, 768-64z
	 M 768,1332.364c-347.066,0-628.364-281.297-628.364-628.364s 281.297-628.364, 628.364-628.364s 628.364,281.297, 628.364,628.364S 1115.066,1332.364, 768,1332.364z M 698.182,285.091c-69.818,0-69.818,69.818-69.818,69.818l 69.818,349.091c0,0,0,69.818-69.818,69.818c0,0-69.818,0-69.818,69.818l 209.455,0 
	c0,0, 69.818,0, 69.818-69.818s-69.818-279.273-69.818-349.091s 69.818-69.818, 69.818-69.818l 69.818,0 C 907.636,354.909, 907.636,285.091, 698.182,285.091z M 837.818,983.273c-38.609,0-69.818,31.209-69.818,69.818s 31.209,69.818, 69.818,69.818s 69.818-31.209, 69.818-69.818S 876.428,983.273, 837.818,983.273z"  />
<glyph unicode="&#xe006;" d="M 768-64C 343.855-64,0,279.855,0,704S 343.855,1472, 768,1472s 768-343.855, 768-768S 1192.145-64, 768-64z
	 M 768,1332.364c-347.066,0-628.364-281.297-628.364-628.364s 281.297-628.364, 628.364-628.364s 628.364,281.297, 628.364,628.364S 1115.066,1332.364, 768,1332.364z M 418.909,634.182l 209.455,0 l 139.636,558.545l 139.636-558.545l 209.455,0 l-349.091-349.091L 418.909,634.182z"  />
<glyph unicode="&#xe007;" d="M 672,1472C 300.96,1472,0,1171.040,0,800c0-183.936, 74.256-350.256, 194.064-471.744L 195.168-64l 318.576,212.832
	C 564.768,136.256, 617.232,128, 672,128c 371.040,0, 672,300.96, 672,672C 1344,1171.040, 1043.040,1472, 672,1472z M 672,320c-33.936,0-70.704,5.040-112.32,15.168l-81.744,20.256
	l-92.064-60.96l 0.576,112.128l-55.68,56.448C 241.296,553.808, 192,673.424, 192,800C 192,1064.768, 407.232,1280, 672,1280c 264.768,0, 480-215.232, 480-480
	C 1152,535.232, 936.768,320, 672,320z" horiz-adv-x="1344"  />
<glyph unicode="&#xe008;" d="M 288,896L0,608L 576,32L 1536,992L 1248,1280L 576,608 z"  />
<glyph unicode="&#xe009;" d="M 767.808,730.064L 1536,1091.936L 1536,1280L0,1280L0,1092.512 		zM 768.192,517.808L0,880.64L0,128L 1536,128L 1536,879.488 		z"  />
<glyph unicode="&#xe00a;" d="M 1248,1280l0-98.256 c0-106.128-85.872-192-192-192s-192,85.872-192,192L 864,1280 l-192,0 l0-98.256 c0-106.128-85.872-192-192-192s-192,85.872-192,192L 288,1280 L0,1280 l0-1344 l 1536,0 L 1536,1280 
			L 1248,1280 z M 480,128L 288,128 l0,192 l 192,0 L 480,128 z M 480,512L 288,512 l0,192 l 192,0 L 480,512 z M 864,128l-192,0 l0,192 l 192,0 L 864,128 z M 864,512l-192,0 l0,192 l 192,0 L 864,512 z M 1056,128l0,192 l 192,0 L 1056,128z M 1248,512l-192,0 l0,192 l 192,0 L 1248,512 zM 384,1184L 384,1376 c0,53.040, 42.96,96, 96,96s 96-42.96, 96-96l0-192 c0-53.040-42.96-96-96-96S 384,1130.96, 384,1184zM 960,1184L 960,1376 c0,53.040, 42.96,96, 96,96s 96-42.96, 96-96l0-192 c0-53.040-42.96-96-96-96S 960,1130.96, 960,1184z"  />
<glyph unicode="&#xe00b;" d="M 1507.872,1443.872c-37.488,37.488-98.832,37.488-136.32,0l-195.36-195.552C 1096.128,1301.552, 1004.256,1328, 912,1328
			c-122.832,0-245.616-46.896-339.36-140.64l-288-288c-164.256-164.064-184.512-417.744-61.104-603.936l-195.36-195.552c-37.488-37.488-37.488-98.256,0-135.744
			C 46.896-54.64, 71.424-64, 96-64s 49.104,9.36, 67.872,28.128l 195.36,195.552C 439.296,106.448, 531.744,80, 624,80c 122.832,0, 245.616,46.896, 339.36,140.64
			l 287.424,288c 164.256,164.064, 184.512,417.744, 61.104,603.936l 195.936,195.552C 1545.36,1345.616, 1545.36,1406.384, 1507.872,1443.872z M 1199.424,848
			c0-76.896-30-149.232-84.384-203.616l-287.424-288C 773.232,302, 700.896,272, 624,272c-43.488,0-85.104,10.704-123.36,28.896l 143.232,143.232
			c 37.488,37.488, 37.488,98.256,0,135.744s-98.256,37.488-135.744,0L 364.896,436.64C 346.512,474.704, 336,516.32, 336,560c0,76.896, 30,149.232, 84.384,203.616
			l 288,288C 762.768,1106, 835.104,1136, 912,1136c 43.488,0, 84.96-10.704, 123.168-28.896l-146.064-146.256c-37.488-37.488-37.488-98.256,0-135.744
			c 18.768-18.768, 43.296-28.128, 67.872-28.128c 24.384,0, 48.96,9.36, 67.68,28.128l 145.872,146.256C 1188.96,933.296, 1199.424,891.68, 1199.424,848z"  />
<glyph unicode="&#xe00c;" d="M 1536,128L 1536,704 l-384,0 c0,211.68, 172.128,384, 384,384L 1536,1280 c-317.616,0-576-258.384-576-576l0-576 L 1536,128 zM 576,128L 576,704 L 192,704 c0,211.68, 172.128,384, 384,384L 576,1280 C 258.384,1280,0,1021.616,0,704l0-576 L 576,128 z"  />
<glyph unicode="&#xe00d;" d="M0,416c0-70.719, 57.279-128.001, 128.001-128.001l 192,0 l0-197.439 c0-35.52, 28.8-63.999, 63.999-63.999
	c 17.952,0, 34.209,7.359, 45.759,19.2L 672,287.999l 704.001,0 c 70.719,0, 128.001,57.279, 128.001,128.001L 1503.999,1216.001 c0,70.719-57.279,128.001-128.001,128.001L 128.001,1343.999 C 57.279,1343.999,0,1286.72,0,1216.001L0,416 z M 384,784.001
	c0,44.16, 35.841,80.001, 80.001,80.001s 80.001-35.841, 80.001-80.001S 508.161,704, 464.001,704S 384,739.841, 384,784.001z M 672,784.001c0,44.16, 35.841,80.001, 80.001,80.001s 80.001-35.841, 80.001-80.001
	S 796.161,704, 752.001,704S 672,739.841, 672,784.001z M 960,784.001c0,44.16, 35.841,80.001, 80.001,80.001s 80.001-35.841, 80.001-80.001S 1084.161,704, 1040.001,704S 960,739.841, 960,784.001z"  />
<glyph unicode="&#xe00e;" d="M0,256.001c0-70.719, 57.279-128.001, 128.001-128.001l 1280.001,0 c 70.719,0, 128.001,57.279, 128.001,128.001L 1536,1120.001 c0,70.719-57.279,128.001-128.001,128.001L 128.001,1247.999 
	c-70.719,0-128.001-57.279-128.001-128.001L0,256.001 z M 471.039,687.041l-292.8,294.72c-24.288,24.321-24.288,63.681,0,87.999c 24.351,24.321, 63.711,24.321, 87.999,0L 733.44,601.952
	c 18.879-18.561, 49.953-18.561, 68.511,0L 1269.759,1069.76c 24.321,24.321, 63.681,24.321, 87.999,0c 24.321-24.321, 24.321-63.681,0-87.999l-293.121-294.72l 293.121-292.767
	c 24.321-24.321, 24.321-63.681,0-87.999s-63.681-24.321-87.999,0l-292.8,292.479c0,0-91.488-93.12-108.129-109.761C 842.88,463.679, 807.039,448.001, 768,448.001
	c-39.681,0-75.519,15.999-101.439,41.952c-16.959,16.641-107.841,108.768-107.841,108.768l-292.512-292.479c-24.288-24.321-63.648-24.321-87.999,0
	c-24.288,24.321-24.288,63.681,0,87.999L 471.039,687.041z"  />
<glyph unicode="&#xe00f;" d="M 192,64.001c0-70.719, 57.279-128.001, 128.001-128.001l 864,0 c 70.719,0, 128.001,57.279, 128.001,128.001L 1311.999,1343.999 c0,70.719-57.279,128.001-128.001,128.001L 320.001,1472 
	C 249.279,1472, 192,1414.721, 192,1343.999L 192,64.001 z M 422.4,1312.001l 659.199,0 C 1120.641,1312.001, 1152,1280.639, 1152,1241.6l0-787.2 c0-39.039-31.359-70.401-70.401-70.401L 422.4,383.999 c-39.039,0-70.401,31.359-70.401,70.401L 351.999,1241.6 
	C 351.999,1280.639, 383.361,1312.001, 422.4,1312.001z M 672,176c0,44.16, 35.841,80.001, 80.001,80.001s 80.001-35.841, 80.001-80.001S 796.161,95.999, 752.001,95.999S 672,131.84, 672,176z"  />
<glyph unicode="&#xe010;" d="M 543.999,224c 35.199,0, 63.999-28.8, 63.999-63.999s-28.8-63.999-63.999-63.999L 303.999,95.999 C 259.839,95.999, 224.001,60.161, 224.001,16.001
	S 259.839-64, 303.999-64l 896.001,0 c 44.16,0, 80.001,35.841, 80.001,80.001S 1244.16,95.999, 1200,95.999L 960,95.999 c-35.199,0-63.999,28.8-63.999,63.999s 28.8,63.999, 63.999,63.999l 416.001,0 c 70.719,0, 128.001,57.279, 128.001,128.001L 1503.999,1343.999 
	c0,70.719-57.279,128.001-128.001,128.001L 128.001,1472 C 57.279,1472,0,1414.721,0,1343.999l0-992.001 c0-70.719, 57.279-128.001, 128.001-128.001L 543.999,224 z M 672,464c0,44.16, 35.841,80.001, 80.001,80.001s 80.001-35.841, 80.001-80.001
	S 796.161,383.999, 752.001,383.999S 672,419.84, 672,464z M 230.4,1312.001l 1043.199,0 C 1312.641,1312.001, 1344,1280.639, 1344,1241.6l0-499.2 c0-39.039-31.359-70.401-70.401-70.401L 230.4,671.999 C 191.361,671.999, 159.999,703.361, 159.999,742.4
	L 159.999,1241.6 C 159.999,1280.639, 191.361,1312.001, 230.4,1312.001z"  />
<glyph unicode="&#xe011;" d="M0,64.001c0-70.719, 57.279-128.001, 128.001-128.001l 1280.001,0 c 70.719,0, 128.001,57.279, 128.001,128.001L 1536,1343.999 c0,70.719-57.279,128.001-128.001,128.001L 128.001,1472 
	C 57.279,1472,0,1414.721,0,1343.999L0,64.001 z M 800.001,128L 800.001,640.001 l-128.001,0 l0,192 l 128.001,0 C 800.001,1161.92, 814.047,1184, 1215.999,1184l0-192 c-211.839,0-192-11.841-192-159.999l 192,0 l0-192 l-192,0 l0-512.001 L 800.001,128 z"  />
<glyph unicode="&#xe012;" d="M0,64.001c0-70.719, 57.279-128.001, 128.001-128.001l 1280.001,0 c 70.719,0, 128.001,57.279, 128.001,128.001L 1536,1343.999 c0,70.719-57.279,128.001-128.001,128.001L 128.001,1472 
	C 57.279,1472,0,1414.721,0,1343.999L0,64.001 z M 1248,335.999c0-44.16-35.841-80.001-80.001-80.001S 1088.001,291.839, 1088.001,335.999C 1088.001,698.24, 794.208,992, 432,992c-44.16,0-80.001,35.841-80.001,80.001
	s 35.841,80.001, 80.001,80.001c 237.441,0, 432.321-81.921, 585.279-234.879C 1174.047,760.319, 1248,565.76, 1248,335.999z M 960,335.999c0-44.16-35.841-80.001-80.001-80.001S 800.001,291.839, 800.001,335.999
	C 800.001,539.201, 635.199,704, 432,704c-44.16,0-80.001,35.841-80.001,80.001s 35.841,80.001, 80.001,80.001C 723.519,863.999, 960,627.488, 960,335.999z M 351.999,400.001
	c0,79.68, 64.32,144, 144,144s 144-64.32, 144-144S 575.679,256.001, 495.999,256.001S 351.999,320.321, 351.999,400.001z"  />
<glyph unicode="&#xe013;" d="M0,64.001c0-70.719, 57.279-128.001, 128.001-128.001l 1280.001,0 c 70.719,0, 128.001,57.279, 128.001,128.001L 1536,1343.999 c0,70.719-57.279,128.001-128.001,128.001L 128.001,1472 
	C 57.279,1472,0,1414.721,0,1343.999L0,64.001 z M 992.001,671.999L 672,671.999 l0-96 c0-35.199, 28.8-63.999, 63.999-63.999l 255.999,0 c 70.719,0, 128.001-57.279, 128.001-128.001s-57.279-128.001-128.001-128.001L 672,256.001 c-141.441,0-255.999,114.561-255.999,255.999L 416.001,1055.999 c0,70.719, 57.279,128.001, 128.001,128.001
	s 128.001-57.279, 128.001-128.001l0-128.001 l 320.001,0 c 70.719,0, 128.001-57.279, 128.001-128.001S 1062.72,671.999, 992.001,671.999z"  />
<glyph unicode="&#xe014;" d="M 480,514.241C 441.6,533.12, 398.079,544.001, 351.999,544.001c-159.039,0-288-128.961-288-288c0-159.072, 128.961-288, 288-288
	s 288,128.928, 288,288L 639.999,896 c0,35.199, 28.8,63.999, 63.999,63.999l 543.999,0 c 35.199,0, 63.999-28.8, 63.999-63.999l0-381.759 C 1273.599,533.12, 1230.048,544.001, 1184.001,544.001c-159.072,0-288-128.961-288-288c0-159.072, 128.928-288, 288-288
	s 288,128.928, 288,288L 1472.001,1337.6 C 1472.001,1376.639, 1440.639,1408.001, 1401.6,1408.001L 550.401,1408.001 C 511.359,1408.001, 480,1376.639, 480,1337.6L 480,514.241 z"  />
<glyph unicode="&#xe015;" d="M0,704c0-424.32, 343.68-768, 768-768s 768,343.68, 768,768S 1192.32,1472, 768,1472S0,1128.32,0,704z
	 M 159.999,704c0,49.281, 5.76,97.281, 16.959,143.040L 320.001,704l-32.001-192l 128.001-128.001l0-175.68 C 261.12,318.401, 159.999,499.487, 159.999,704z M 628.161,1295.681C 672.96,1306.559, 719.679,1312.001, 768,1312.001
	c 53.439,0, 105.279-7.041, 154.56-19.839L 896.001,1247.999l 32.001-32.001l 96,0 l 26.559,26.559c 22.368-11.841, 43.488-24.639, 63.999-39.039L 1056,1184l-63.999-63.999l 63.999-32.001l0-32.001 l-63.999,0 l0-63.999 c0,0, 44.16-32.001, 96-32.001
	c 50.88,0, 28.161,70.080, 63.999,96c 36.159,25.92, 80.001,20.16, 80.001,20.16l 20.799-5.439c 39.039-51.519, 70.047-109.119, 91.2-171.519L 1344,896 c0,0-45.12,32.001-128.001,32.001s-159.999-32.001-159.999-32.001
	s-90.24-26.241-96-96c-9.951-120, 32.001-159.999, 32.001-159.999l 159.999-96l0-311.361 C 1047.36,147.2, 913.599,95.999, 768,95.999c-68.799,0-134.721,11.199-196.479,32.319L 735.999,512l-32.001,159.999c0,0-127.041,159.999-192,159.999
	s-96-96-96-96l-63.999,128.001l 192,128.001l 96,255.999L 628.161,1295.681z"  />
<glyph unicode="&#xe016;" d="M0,512c0-194.559, 157.44-351.999, 351.999-351.999l 831.999,0 c 194.559,0, 351.999,157.44, 351.999,351.999
	c0,149.439-93.12,276.801-224.319,327.999L 1311.999,848C 1311.999,1051.199, 1147.2,1216.001, 944.001,1216.001c-128.64,0-241.599-65.952-307.521-165.792C 600.927,1074.209, 558.048,1088, 512.001,1088
	c-123.84,0-224.001-100.161-224.001-224.001l0-5.793 C 124.161,828.161,0,684.479,0,512z"  />
<glyph unicode="&#xe017;" d="M 1296-16L 240-16 c-52.992,0-96,43.008-96,96L 144,1136 c0,53.040, 43.008,96, 96,96l 96,0 l0-48 c0-79.536, 64.464-144, 144-144
	c 79.488,0, 144,64.464, 144,144L 624,1232 l 288,0 l0-48 c0-79.536, 64.512-144, 144-144s 144,64.464, 144,144L 1200,1232 l 96,0 c 52.992,0, 96-42.96, 96-96l0-1056 C 1392,27.008, 1348.992-16, 1296-16z M 1296,896L 240,896 l0-816 l 1056,0 
	L 1296,896 z M 480,656L 336,656 l0,144 l 144,0 L 480,656 z M 480,416L 336,416 l0,144 l 144,0 L 480,416 z M 480,176L 336,176 l0,144 l 144,0 L 480,176 z M 720,656l-144,0 l0,144 l 144,0 L 720,656 z M 720,416l-144,0 l0,144 l 144,0 L 720,416 z M 720,176l-144,0 l0,144 l 144,0 L 720,176 z M 960,656l-144,0 
	l0,144 l 144,0 L 960,656 z M 960,416l-144,0 l0,144 l 144,0 L 960,416 z M 960,176l-144,0 l0,144 l 144,0 L 960,176 z M 1200,656l-144,0 l0,144 l 144,0 L 1200,656 z M 1200,416l-144,0 l0,144 l 144,0 L 1200,416 z M 1200,176l-144,0 l0,144 l 144,0 L 1200,176 z M 1054.512,1088
	C 1002.288,1088, 960,1130.336, 960,1182.512L 960,1281.488 C 960,1333.712, 1002.288,1376, 1054.512,1376s 94.512-42.288, 94.512-94.512l0-98.976 C 1149.024,1130.336, 1106.736,1088, 1054.512,1088z
	 M 478.512,1088C 426.288,1088, 384,1130.336, 384,1182.512L 384,1281.488 C 384,1333.712, 426.288,1376, 478.512,1376s 94.512-42.288, 94.512-94.512l0-98.976 C 573.024,1130.336, 530.688,1088, 478.512,1088z"  />
<glyph unicode="&#xe018;" d="M 240-16L 240,1184 l 200.016,192l 608.016,0 L 1248,1184l0-1200 L 240-16 z M 288,32l 912,0 L 1200,1136 L 288,1136 L 288,32 z M 336,560l 816,0 l0-480 L 336,80 L 336,560 z M 624,368l0-48 l 48,0 
	l 144,0 l 48,0 l0,48 l0,96 l-48,0 l0-96 l-144,0 l0,96 l-48,0 L 624,368 z M 336,1088l 816,0 l0-480 L 336,608 L 336,1088 z M 624,848l 48,0 l 144,0 l 48,0 l0,48 l0,96 l-48,0 l0-96 l-144,0 l0,96 l-48,0 L 624,848 z"  />
<glyph unicode="&#xe019;" d="M 1036.8,1088l-528,0 L 192,656l0-240 c0-52.992, 43.008-96, 96-96l 960,0 c 52.992,0, 96,43.008, 96,96l0,240 L 1036.8,1088z
			 M 1078.32,654.944l-98.496-144.144l-412.272,0.96l-105.648,143.76l-196.128,1.104l 271.776,382.8L 1008,1039.424 l 268.8-382.8L 1078.32,654.944z M 630,800
			l 117.024-2.976L 747.024,608 c0-26.544, 18.48-48, 45.024-48c 26.496,0, 42,21.456, 42,48l0,189.024 L 950.976,800L 792,982.976L 630,800z"  />
<glyph unicode="&#xe01a;" d="M 1274.991,52.847l-125.754,34.506l-0.288,347.838l 120.291-33.834l 173.439,647.415L 564.123,1284.179
	l-57.894-215.949L 407.121,1068.23 l 89.283,333.174l 1063.596-284.961L 1274.991,52.847z M 1104.138-62.797L0-62.797 L0,1038.371 l 1104.138,0 L 1104.138-62.797 z M 1008.387,942.617L 95.754,942.617 l0-670.227 l 912.633,0 
	L 1008.387,942.617 z M 376.161,464.711l 109.413,176.937l 109.413-110.274l 150.435,226.542l 157.338-389.82L 205.167,368.096 l 88.899,177.801L 376.161,464.711z M 310.743,651.953
	c-39.681,0-71.838,32.109-71.838,71.79s 32.157,71.79, 71.838,71.79s 71.79-32.109, 71.79-71.79S 350.427,651.953, 310.743,651.953z" horiz-adv-x="1560"  />
<glyph unicode="&#xe01b;" d="M 1412.448,726.32c0,0, 31.152,419.664-353.328,467.52c-329.52,33.648-429.84-272.592-429.84-272.592
	s-99.216,95.424-233.856,17.472c-120.528-74.4-99.216-210.624-99.216-210.624s-267.648-52.032-267.648-324.864C 34.512,130.736, 319.152,128, 319.152,128L 768,128 l0,288 l-144,0 
	l 240,240l 240-240l-144,0 l0-288 l 406.416,0 c0,0, 264.96-0.288, 302.16,258.96C 1686.288,670.448, 1412.448,726.32, 1412.448,726.32z" horiz-adv-x="1680"  />
<glyph unicode="&#xe01c;" d="M 927.936,558.032c0,0-79.872-102-181.92,0c-98.976,96-170.976,0-170.976,0l-238.416-469.92
			c-6.912-25.584, 8.304-51.888, 33.888-58.752l 791.856,0 c 25.584,6.864, 40.8,33.12, 33.936,58.752L 927.936,558.032z M 1293.072,112.16l-382.992,644.544
			l0,1.2 l-0.672,377.712l 26.448,0 c 39.648,0, 71.904,32.208, 71.904,71.952c0,39.696-32.256,71.904-71.904,71.904l-383.76,0 
			c-39.696,0-71.904-32.208-71.904-71.904c0-39.744, 32.208-71.952, 71.904-71.952l 23.136,0 l-0.768-377.808L 242.88,112.16
			C 222.336,35.408, 267.888-43.456, 344.592-64L 1191.36-64 C 1268.16-43.456, 1313.712,35.408, 1293.072,112.16z M 1178.544-15.904L 357.36-14.992
			c-51.12,13.728-81.456,66.336-67.776,117.408l 333.456,653.568l 1.008,427.584l-71.904,0 c-13.2,0-23.952,10.752-23.952,24
			c0,13.2, 10.752,23.952, 23.952,23.952l 383.76,0 c 13.2,0, 23.904-10.752, 23.904-23.952c0-13.248-10.704-24-23.904-24L 864,1183.568 l 1.2-426
			l 381.072-655.968C 1260,50.384, 1229.616-2.224, 1178.544-15.904z M 791.040,1351.424c0-26.496, 21.504-48, 48-48s 48,21.504, 48,48s-21.456,48-48,48
			S 791.040,1377.968, 791.040,1351.424z M 839.040,1471.424c 39.744,0, 72,32.208, 72,72s-32.256,72-72,72s-72-32.208-72-72
			S 799.296,1471.424, 839.040,1471.424z M 647.040,1351.424c 26.544,0, 48,21.504, 48,48s-21.456,48-48,48s-48-21.504-48-48S 620.496,1351.424, 647.040,1351.424z"  />
<glyph unicode="&#xe01d;" d="M 1373.184,932.192L 768,1346.528L 162.816,932.192L 768,517.904L 1373.184,932.192z M 768,425.456
			L 233.808,777.68L 162.816,704L 768,289.712L 1373.184,704l-71.952,75.264L 768,425.456z M 768,197.168L 233.808,549.392l-70.992-73.68L 768,61.424
			l 605.184,414.288l-71.952,75.264L 768,197.168z"  />
<glyph unicode="&#xe01e;" d="M 83.28,616.064l 578.592-291.888l 103.296,291.888L 186.624,892.448L 83.28,616.064z
			 M 778.128,616.064l 98.16-289.296l 599.232,291.888l-116.256,273.792L 778.128,616.064z M-11.856,1125.824l 198.912-232.464L 765.6,1187.792l-188.544,240.24
			L-11.856,1125.824z M 1547.856,1120.688L 971.808,1428.032l-196.32-240.24l 583.776-294.432L 1547.856,1120.688z M 152.4,543.056l-1.968-280.272l 610.224-282.864
			L 760.656,506.96 l-87.168-227.328L 152.4,543.056z M 781.968,506.96l0-526.992 l 608.352,282.864l0,278.352 l-527.52-262.080L 781.968,506.96z"  />
<glyph unicode="&#xe01f;" d="M 741.696,1327.712L 100.32,1051.376l 642-274.176L 1390.944,1052L 741.696,1327.712z M 768,742.688
			l0-662.4 l 623.76,296.112L 1391.76,1007.648 L 768,742.688z M 96.24,376.4l 625.872-296.112l0,662.4 L 96.24,1007.648L 96.24,376.4 z"  />
<glyph unicode="&#xe020;" d="M 100.944,893.504l 643.104-798.192l-257.904,798.192L 100.944,893.504 z M 556.032,893.504l 227.76-799.824l 195.984,799.824L 556.032,893.504 z M 818.448,95.312
			l 619.104,798.192l-382.224,0 L 818.448,95.312z M 1438.992,945.728l-185.616,317.376l-185.712-317.376L 1438.992,945.728 z M 1195.008,1281.296L 823.68,1281.296 l 185.616-328.272
			L 1195.008,1281.296z M 952.224,945.728l-185.616,317.376l-185.664-317.376L 952.224,945.728 z M 712.272,1281.296L 340.992,1281.296 l 185.664-328.272L 712.272,1281.296z M 282.672,1263.104
			l-185.616-317.376l 371.28,0 L 282.672,1263.104z"  />
<glyph unicode="&#xe021;" d="M 1202.016,575.744L 1202.016,1175.12 c0,59.232-48,107.328-107.328,107.328L 155.28,1282.448 
			C 96,1282.496, 47.952,1234.4, 47.952,1175.12l0-599.376 c0-59.28, 48.048-107.328, 107.328-107.328l 178.992,0 l0-246.576l 273.792,246.576l 486.576,0 
			C 1154.016,468.416, 1202.016,516.464, 1202.016,575.744z M 1380.72,1046.816l-134.304,0 c0,0,0-478.656,0-523.632s-58.368-102.816-103.344-102.816
			s-525.36-2.64-525.36-2.64c0-59.28, 48.048-95.328, 107.328-95.328l 206.832,0 l 269.856-244.896l-0.336,244.896l 179.328,0 
			c 59.328,0, 107.328,36.048, 107.328,95.328L 1488.048,942.464 C 1488.048,1001.696, 1440.048,1046.816, 1380.72,1046.816z"  />
<glyph unicode="&#xe022;" d="M 1152-65.968L 288-65.968 c-53.040,0-96,42.864-96,95.808L 192,1186.496 c0,52.896, 42.96,95.76, 96,95.76l 240,0 l0-99.792 
	L 336,1182.464 c-26.496,0-48-21.408-48-47.904l0-1056.816 c0-26.544, 21.504-47.904, 48-47.904l 768,0 c 26.544,0, 48,21.36, 48,47.904L 1152,1134.56 c0,26.496-21.456,47.904-48,47.904l-192,0 
	L 912,1282.256 l 240,0 c 52.992,0, 96-42.912, 96-95.76l0-1156.656 C 1248-23.104, 1204.992-65.968, 1152-65.968z M 528,895.088l 528,0 l0-47.904 L 528,847.184 L 528,895.088 z M 528,751.376l 528,0 l0-47.904 
	L 528,703.472 L 528,751.376 z M 528,607.616l 528,0 l0-47.904 L 528,559.712 L 528,607.616 z M 528,463.904l 528,0 L 1056,416 L 528,416 L 528,463.904 z M 1056,128.672L 528,128.672 L 528,176.48 l 528,0 L 1056,128.672 z M 528,320.192l 528,0 l0-47.904 L 528,272.288 
	L 528,320.192 z M 384,896.048l 48,0 l0-47.904 L 384,848.144 L 384,896.048 z M 384,752.336l 48,0 l0-47.904 L 384,704.432 L 384,752.336 z M 384,608.672l 48,0 l0-47.904 L 384,560.768 L 384,608.672 z M 384,464.96l 48,0 l0-47.904 L 384,417.056 L 384,464.96 z
	 M 432,129.584L 384,129.584 l0,47.904 l 48,0 L 432,129.584 z M 384,321.2l 48,0 l0-47.904 L 384,273.296 L 384,321.2 z M 1008,1131.632c 26.544,0, 48-21.456, 48-47.952c0-26.448,0-92.784,0-92.784L 384,990.896 
	c0,0,0,66.336,0,92.784c0,26.496, 21.456,47.952, 48,47.952l 144,0 c0,0, 0.576,68.112, 0.576,145.968c0,80.832, 62.4,148.416, 143.424,148.416
	s 145.584-71.040, 145.584-148.896C 865.584,1193.264, 864,1131.632, 864,1131.632L 1008,1131.632 z M 720,1282.256c-26.544,0-48-21.408-48-47.856c0-26.496, 21.456-47.904, 48-47.904
	s 48,21.408, 48,47.904C 768,1260.848, 746.544,1282.256, 720,1282.256z"  />
<glyph unicode="&#xe023;" d="M 1056-64L 480-64 c-159.072,0-288,129.024-288,288L 192,1184 c0,159.072, 128.928,288, 288,288l 576,0 c 158.976,0, 288-128.928, 288-288l0-960 
	C 1344,65.024, 1214.976-64, 1056-64z M 768,32c 53.088,0, 96,42.912, 96,96s-42.912,96-96,96s-96-42.912-96-96S 714.912,32, 768,32z M 864,1376L 672,1376 l0-96 l 192,0 L 864,1376 z M 1248,1184L 288,1184 l0-864 l 960,0 L 1248,1184 z
	 M 384,800L 384,1088 l 288,0 L 384,800z"  />
<glyph unicode="&#xe024;" d="M 1396.364,75.636c0,0-1117.091,0-1256.727,0s-139.636,139.636-139.636,139.636l0,488.727 l 349.091,628.364l 837.818,0 l 349.091-628.364c0,0,0-349.091,0-488.727S 1396.364,75.636, 1396.364,75.636z M 1117.091,1192.727L 418.909,1192.727 
	l-244.364-488.727L 488.727,704 c0,0, 139.636,0, 139.636-139.636l0-69.818 l 279.273,0 l0,69.818 c0,0,0,139.636, 139.636,139.636l 314.182,0 L 1117.091,1192.727z M 1396.364,564.364l-332.265,0 C 1054.394,546.001, 1047.273,524.009, 1047.273,494.545c0-139.636-139.636-139.636-139.636-139.636L 628.364,354.909 c0,0-139.636,0-139.636,139.636
	c0,29.463-7.121,51.456-16.826,69.818L 139.636,564.364 l0-349.091 l 1256.727,0 L 1396.364,564.364 z M 453.818,913.455l 628.364,0 L 1117.091,843.636L 418.909,843.636 L 453.818,913.455z M 523.636,1053.091l 488.727,0 L 1047.273,983.273L 488.727,983.273 L 523.636,1053.091z"  />
<glyph unicode="&#xe025;" d="M 1396.364-64c0,0-1117.091,0-1256.727,0s-139.636,139.636-139.636,139.636L0,843.636 l 349.091,628.364l 837.818,0 l 349.091-628.364c0,0,0-628.364,0-768S 1396.364-64, 1396.364-64z M 488.727,354.909
	c0,0,0-69.818, 69.818-69.818s 418.909,0, 418.909,0s 69.818,0, 69.818,69.818s0,69.818,0,69.818s0,69.818-69.818,69.818c-209.455,0-418.909,0-418.909,0s-69.818,0-69.818-69.818S 488.727,354.909, 488.727,354.909z M 1117.091,1332.364L 418.909,1332.364 L 174.545,843.636l 1186.909,0 L 1117.091,1332.364z M 1082.182,1053.091L 1117.091,983.273L 418.909,983.273 l 34.909,69.818L 1082.182,1053.091 z
	 M 523.636,1192.727l 488.727,0 L 1047.273,1122.909L 488.727,1122.909 L 523.636,1192.727z M 907.636,354.909L 628.364,354.909 l0,69.818 l 279.273,0 L 907.636,354.909 z"  />
<glyph unicode="&#xe026;" d="M 1440,1472L 96,1472 C 42.936,1472,0,1429.064,0,1376l0-1344 c0-53.064, 42.936-96, 96-96l 1344,0 
	c 53.064,0, 96,42.936, 96,96l0,288 L 1536,1088 L 1536,1376 C 1536,1429.064, 1493.064,1472, 1440,1472z M 1344,416l-288,0 l0-288 L 480,128 l0,288 L 192,416 L 192,992 L 192,1280 l 288,0 l 576,0 l 288,0 L 1344,416 zM 384,800L 1152,800L 1152,608L 384,608zM 384,1088L 1152,1088L 1152,896L 384,896z"  />
<glyph unicode="&#xe027;" d="M 1228.8,1318.4L 612.864,1318.4 C 528.384,1318.4, 460.8,1250.816, 460.8,1166.336L 460.8,550.4 c0-84.48, 69.12-153.6, 153.6-153.6l 614.4,0 c 84.48,0, 153.6,69.12, 153.6,153.6L 1382.4,1164.8 C 1382.4,1249.28, 1313.28,1318.4, 1228.8,1318.4z M 1228.8,550.4L 614.4,550.4 L 614.4,1164.8 l 614.4,0 L 1228.8,550.4 z M 307.2,704L 153.6,704 l0-460.8 
		c0-84.48, 69.12-153.6, 153.6-153.6l 460.8,0 l0,153.6 L 307.2,243.2 L 307.2,704 z"  />
<glyph unicode="&#xe028;" d="M 1489.766,902.605L 917.99,1055.744L 817.92,1429.146c-8.371,31.181-41.779,49.382-74.65,40.55L 46.31,1282.995
	C 13.44,1274.24-6.374,1241.754, 1.92,1210.573l 247.987-925.594c 8.371-31.181, 41.779-49.382, 74.573-40.55l 277.478,74.342l-37.862-141.158
	c-8.371-31.258, 11.443-63.667, 44.314-72.499l 622.848-166.886c 32.87-8.755, 66.278,9.37, 74.65,40.55l 228.173,851.405
	C 1542.451,861.363, 1522.637,893.85, 1489.766,902.605z M 125.491,1193.062l 601.267,160.973l 222.643-830.822l-601.344-160.973L 125.491,1193.062z M 1204.147,53.888
	l-523.392,143.155L 721.92,350.874l 299.597,80.256c 32.87,8.832, 52.762,41.242, 44.39,72.499l-115.814,432.154l 456.653-125.261L 1204.147,53.888z"  />
<glyph unicode="&#xe029;" d="M0,1344l0-896 l 624,0 L 512,256l 512,0 l-112,192L 1536,448 L 1536,1344 L0,1344 z M 1408,576L 128,576 L 128,1216 l 1280,0 L 1408,576 z M 1088,192L 448,192 c-35.2,0-64-28.8-64-64s 28.8-64, 64-64l 640,0 c 35.2,0, 64,28.8, 64,64
			S 1123.2,192, 1088,192z"  />
<glyph unicode="&#xe02a;" d="M 1466.373,1180.307c-50.976,14.562-104.115-14.955-118.68-65.934L 1340.16,1088L 444.747,1088 l-13.488,107.907
		C 425.253,1243.949, 384.414,1280, 336,1280L 96,1280 C 42.981,1280,0,1237.019,0,1184s 42.981-96, 96-96l 155.253,0 l 85.488-683.907
		C 342.747,356.054, 383.586,320, 432,320l 816,0 c 42.861,0, 80.532,28.416, 92.307,69.627l 192,672
		C 1546.872,1112.606, 1517.352,1165.742, 1466.373,1180.307z M 768,704l0,96 l 191.994,0 l0-96 L 768,704 z M 959.994,608l0-96 L 768,512 l0,96 L 959.994,608 z M 768,896l0,96 
		l 191.994,0 l0-96 L 768,896 z M 456.747,992L 672,992 l0-96 l-203.253,0 L 456.747,992z M 480.747,800L 672,800 l0-96 l-179.253,0 L 480.747,800z M 504.747,608L 672,608 l0-96 l-155.253,0 
		L 504.747,608z M 1175.586,512l-119.592,0 l0,96 l 147.021,0 L 1175.586,512z M 1230.444,704l-174.45,0 l0,96 l 201.879,0 L 1230.444,704z M 1285.302,896l-229.308,0 
		l0,96 l 256.737,0 L 1285.302,896zM 384,80A144,144 2700 1 1 672,80A144,144 2700 1 1 384,80zM 960,80A144,144 2700 1 1 1248,80A144,144 2700 1 1 960,80z"  />
<glyph unicode="&#xe02b;" d="M 1104,1472L 432,1472 c-79.2,0-144-64.8-144-144l0-1248 c0-79.2, 64.8-144, 144-144l 672,0 c 79.2,0, 144,64.8, 144,144L 1248,1328 C 1248,1407.2, 1183.2,1472, 1104,1472z M 576,1400
	l 384,0 l0-48 L 576,1352 L 576,1400 z M 768,32c-53.019,0-96,42.981-96,96s 42.981,96, 96,96s 96-42.981, 96-96S 821.019,32, 768,32z M 1152,320L 384,320 L 384,1280 l 768,0 L 1152,320 
	z"  />
<glyph unicode="&#xe02d;" d="M 697.584,539.744L 189.84,1047.488c-253.104-292.128-253.104-723.36,0-1015.488L 697.584,539.744zM 768,608L 768,1472 C 532.512,1457.36, 320.256,1367.36, 148.944,1227.104L 768,608zM 864.096,1279.232l0-710.976 L 365.712,69.872C 477.456-12.256, 612.096-64, 760.992-64C 1136.256-64, 1440,239.744, 1440,614.384
			C 1440,954.128, 1189.104,1229.36, 864.096,1279.232z" horiz-adv-x="1440"  />
<glyph unicode="&#xe02e;" d="M 819.36,1331.36c-187.488,187.488-491.232,187.488-678.768,0c-187.488-187.392-187.488-491.424,0-678.72
				C 140.64,652.64, 480,320, 480-64c0,384, 339.36,716.64, 339.36,716.64C 1006.896,839.936, 1006.896,1143.968, 819.36,1331.36z M 480,800c-106.128,0-192,85.872-192,192
				s 85.872,192, 192,192s 192-85.872, 192-192S 586.128,800, 480,800z" horiz-adv-x="960"  />
<glyph unicode="&#xe02f;" d="M 770.496,34.592c 131.169-131.52, 343.68-131.52, 474.849,0
	c 81.633,81.6, 112.641,194.559, 92.511,300.159c 34.56,17.601, 65.568,38.079, 91.488,57.279c 2.88,2.241, 15.681,11.199, 18.879,13.761c 14.433,11.841, 23.679,29.76, 23.679,49.953
	c0,19.2-8.319,36.48-21.759,48l-264,217.599c-10.881,8.961-24.927,14.4-40.32,14.4c-17.313,0-32.991-6.72-44.511-17.601
	c-4.512-4.479-44.127-45.12-44.127-45.12c-27.552-27.519-72-27.519-99.552,0l-269.409,269.76c-27.519,27.519-27.519,72.321,0,99.84l 43.839,43.839
	c 11.52,11.52, 18.24,27.519, 18.24,44.769c0,17.28-6.72,32.673-17.601,44.16l-226.239,273.279c-11.841,14.079-29.76,23.361-49.599,23.361
	c-21.12,0-39.681-10.239-51.519-25.92l-3.84-5.121c-49.281-66.561-113.601-172.161-113.601-271.359c0-273.279, 609.312-881.601, 879.999-881.601
	c 5.121,0, 10.239,0.321, 15.072,0.321c 4.8-50.241-12.192-102.048-50.559-140.799c-68.799-68.769-180.192-68.769-248.991,0l-441.888,454.080
	c-93.759,93.759-245.439,93.759-339.201,0c-93.759-93.759-93.759-245.439,0-339.201l 144.96-143.040c 31.359-31.071, 81.921-31.071, 113.28,0c 31.041,31.329, 31.041,81.921,0,113.247
	l-145.281,142.752c-31.041,31.329-31.041,81.921,0,113.247c 31.359,31.071, 81.921,31.071, 113.28,0L 770.496,34.592z"  />
<glyph unicode="&#xe030;" d="M 948.864,1024.064c 69.12-15.999, 124.128-74.88, 140.127-139.2
	c 5.472-30.081, 31.68-52.8, 63.072-52.8c 35.199,0, 63.999,28.8, 63.999,63.999c0,46.080-38.721,116.16-91.521,168.639c-51.84,51.201-113.601,87.36-164.481,87.36c-35.199,0-63.999-29.76-63.999-64.959
	C 896.064,1055.777, 918.783,1029.503, 948.864,1024.064z M 69.183,185.024c-49.599-49.569-49.599-130.239,0-179.808c 49.599-49.632, 130.239-49.632, 179.52,0
	l 367.647,367.359c 85.791-53.505, 186.879-84.513, 295.68-84.513c 309.441,0, 560.001,250.56, 560.001,560.001c0,309.441-250.56,560.001-560.001,560.001s-560.001-250.56-560.001-560.001
	c0-108.48, 31.071-209.919, 84.513-295.68L 69.183,185.024z M 512.064,848.063c0,220.8, 179.232,399.999, 399.999,399.999c 220.8,0, 399.999-179.199, 399.999-399.999
	s-179.199-399.999-399.999-399.999C 691.296,448.097, 512.064,627.296, 512.064,848.063z"  />
<glyph unicode="&#xe02c;" d="M 1088.031,1104.032c0-44.16, 35.841-80.001, 80.001-80.001s 80.001,35.841, 80.001,80.001s-35.841,80.001-80.001,80.001
	S 1088.031,1148.192, 1088.031,1104.032z M 528.672-26.848c 49.281-49.632, 129.279-49.632, 178.881,0l 782.079,776.961c 31.329,31.329, 47.040,72.639, 46.401,113.919L 1536.033,1313.312 
	c0,87.681-71.073,158.721-158.721,158.721l-449.28,0 c-41.28,0.672-82.56-15.039-113.952-46.401L 37.152,643.52c-49.632-49.569-49.632-129.567,0-178.881L 528.672-26.848z
	 M 960.033,1104.032c0,114.879, 93.12,207.999, 207.999,207.999s 207.999-93.12, 207.999-207.999s-93.12-207.999-207.999-207.999S 960.033,989.153, 960.033,1104.032z"  />
<glyph unicode="&#xe031;" d="M 1052.832,992l-560.001-563.487c-18.591-18.561-48.672-18.561-67.233,0
	c-18.561,18.528-18.561,48.927,0,67.488L 1081.983,1156.511c 27.201,27.489, 71.328,27.489, 98.529,0l 147.84-148.8c 27.201-27.201, 27.201-71.679,0-99.201L 672.033,248
	c-117.441-118.047-307.839-118.047-425.601,0c-117.471,118.401-117.471,310.047,0,428.511l 560.001,563.487c 31.041,31.041, 31.041,81.6,0,112.671
	c-30.72,31.041-80.961,31.041-111.999,0l-560.001-563.52c-179.232-180.513-179.232-473.28,0-653.76c 179.52-180.513, 470.4-180.513, 649.599,0l 705.6,710.049
	c 61.791,62.4, 61.791,163.233,0,225.6l-246.399,247.68c-61.761,62.4-162.24,62.4-224.001,0L 313.632,608.639c-80.319-80.64-80.319-211.809,0-292.767
	c 80.64-80.961, 210.879-80.961, 291.231,0l 560.001,563.52c 31.041,31.041, 31.041,81.6,0,112.641C 1133.793,1023.041, 1083.873,1023.041, 1052.832,992z"  />
<glyph unicode="&#xe032;" d="M 975.999,704l-447.999,0 c-44.16,0-80.001-35.841-80.001-80.001s 35.841-80.001, 80.001-80.001l 447.999,0 
	c 44.16,0, 80.001,35.841, 80.001,80.001S 1020.159,704, 975.999,704z M 975.999,416l-447.999,0 c-44.16,0-80.001-35.841-80.001-80.001s 35.841-80.001, 80.001-80.001l 447.999,0 c 44.16,0, 80.001,35.841, 80.001,80.001
	S 1020.159,416, 975.999,416z M 128.001,64.001c0-70.719, 57.279-128.001, 128.001-128.001l 992.001,0 c 70.719,0, 128.001,57.279, 128.001,128.001L 1376.001,1151.999 c0,70.719-57.279,128.001-128.001,128.001l-260.799,0 c-22.047,109.44-119.040,192-235.2,192
	s-213.12-82.56-235.2-192L 255.999,1280 c-70.719,0-128.001-57.279-128.001-128.001L 128.001,64.001 z M 358.401,1120.001L 512.001,1120.001 l0-57.6 c0-39.039, 31.359-70.401, 70.401-70.401l 339.201,0 c 39.039,0, 70.401,31.359, 70.401,70.401L 992.001,1120.001 l 153.6,0 
	c 39.039,0, 70.401-31.359, 70.401-70.401l0-883.2 c0-39.039-31.359-70.401-70.401-70.401L 358.401,95.999 C 319.359,95.999, 288,127.361, 288,166.4L 288,1049.6 C 288,1088.639, 319.359,1120.001, 358.401,1120.001z M 672,1232
	C 672,1276.16, 707.841,1312.001, 752.001,1312.001S 831.999,1276.16, 831.999,1232S 796.161,1151.999, 752.001,1151.999S 672,1187.84, 672,1232z"  />
<glyph unicode="&#xe033;" d="M 1344,1280L 192,1280 C 138.96,1280, 96,1236.992, 96,1184l0-960 c0-52.992, 42.96-96, 96-96l 1152,0 c 52.992,0, 96,43.008, 96,96L 1440,1184 
			C 1440,1236.992, 1396.992,1280, 1344,1280z M 554.976,1208c 26.496,0, 47.952-21.504, 47.952-48s-21.456-48-47.952-48c-26.544,0-48,21.504-48,48S 528.48,1208, 554.976,1208z
			 M 408,1208c 26.496,0, 48-21.504, 48-48s-21.504-48-48-48c-26.544,0-48,21.504-48,48S 381.456,1208, 408,1208z M 263.952,1208c 26.544,0, 48-21.504, 48-48
			s-21.456-48-48-48C 237.456,1112, 216,1133.504, 216,1160S 237.456,1208, 263.952,1208z M 1344,224L 192,224 L 192,1038.992 l 1152,0 L 1344,224 z M 1344,1134.992L 672,1134.992 l0,48 l 672,0 L 1344,1134.992 z"  />
<glyph unicode="&#xe034;" d="M 192,1184l0-1056 l 1056,0 L 1248,1184 L 192,1184 z M 384,224L 288,224 l0,96 l 96,0 L 384,224 z M 384,368L 288,368 l0,96 l 96,0 L 384,368 z M 384,512L 288,512 l0,96 l 96,0 L 384,512 z M 384,704L 288,704 l0,96 
			l 96,0 L 384,704 z M 384,848L 288,848 l0,96 l 96,0 L 384,848 z M 384,992L 288,992 L 288,1088 l 96,0 L 384,992 z M 960,224L 480,224 l0,384 l 480,0 L 960,224 z M 960,704L 480,704 L 480,1088 l 480,0 L 960,704 z M 1152,224l-96,0 l0,96 l 96,0 L 1152,224 z M 1152,368l-96,0 l0,96 l 96,0 L 1152,368 z M 1152,512l-96,0 
			l0,96 l 96,0 L 1152,512 z M 1152,704l-96,0 l0,96 l 96,0 L 1152,704 z M 1152,848l-96,0 l0,96 l 96,0 L 1152,848 z M 1152,992l-96,0 L 1056,1088 l 96,0 L 1152,992 z"  />
<glyph unicode="&#xe035;" d="M 768,1304c-344.688,0-624-279.36-624-624s 279.312-624, 624-624c 344.592,0, 624,279.36, 624,624
			S 1112.64,1304, 768,1304z M 762.96,174.704c-278.352,0-504,225.648-504,504c0,278.352, 225.648,504, 504,504c 278.304,0, 504-225.648, 504-504
			C 1266.96,400.352, 1041.264,174.704, 762.96,174.704z M 908.64,649.712l-143.040,0 l0,241.536 c0,26.208-21.264,47.52-47.472,47.52
			c-26.256,0-47.52-21.264-47.52-47.52l0-289.008 c0-26.256, 21.264-47.472, 47.52-47.472l 190.512,0 c 26.256,0, 47.52,21.216, 47.52,47.472
			C 956.16,628.448, 934.896,649.712, 908.64,649.712z"  />
<glyph unicode="&#xe036;" d="M 192-16L 192,752 l 144,0 l0,240 c0,212.064, 171.888,384, 384,384l 48,0 c 212.064,0, 384-171.936, 384-384l0-240 l 144,0 l0-768 L 192-16 z
	 M 707.712,378.224L 672,128l 144,0 l-35.76,250.224c 34.992,14.304, 59.76,48.624, 59.76,88.8c0,52.992-43.008,96-96,96c-53.040,0-96-43.008-96-96
	C 648,426.848, 672.72,392.528, 707.712,378.224z M 1008,968C 1008,1113.824, 889.776,1232, 744,1232C 598.176,1232, 480,1113.824, 480,968L 480,752 l 528,0 L 1008,968 z"  />
<glyph unicode="&#xe037;" d="M 774.24,1386.512c-257.808,0-393.12-203.328-393.12-388.32c0-207.552, 193.152-338.064, 193.152-677.472
			l 195.6,0 c0,0, 183.696-0.864, 189.264-0.864c 5.568,341.904, 195.744,476.4, 195.744,679.968C 1154.928,1173.536, 1032.048,1386.512, 774.24,1386.512z M 934.752,270.512
			l-336,0 c-13.248,0-24-10.752-24-24s 10.752-24, 24-24l 336,0 c 13.2,0, 24,10.752, 24,24S 947.952,270.512, 934.752,270.512z M 934.752,174.512l-336,0 
			c-13.248,0-24-10.752-24-24s 10.752-24, 24-24l 336,0 c 13.2,0, 24,10.752, 24,24S 947.952,174.512, 934.752,174.512zM 622.752,78.512c0,0,0-21.456,0-48c0-26.496, 21.456-48, 48-48l 192.672,0 c 26.544,0, 48,21.504, 48,48
	c0,26.544,0,48,0,48L 622.752,78.512 z"  />
<glyph unicode="&#xe038;" d="M 1247.712,697.088L 660.912,1283.888L 96,1281.728l 0.864-519.888L 704.64,154.064
			c 38.112-38.16, 99.456-38.688, 136.992-1.152l 407.232,407.28C 1286.352,597.68, 1285.872,658.976, 1247.712,697.088z M 339.888,946.304
			c-52.992,0-96,43.008-96,96s 43.008,96, 96,96c 53.040,0, 96-43.008, 96-96S 392.928,946.304, 339.888,946.304z M 1384.608,695.936L 797.808,1282.736L 727.2,1282.496
			l 588.96-585.936c 38.16-38.16, 38.64-99.408, 1.104-136.944l-407.232-407.28c-9.936-9.936-21.648-16.992-34.032-21.648
			c 34.608-13.296, 74.928-6.48, 102.48,21.024l 407.328,407.28C 1423.296,596.528, 1422.768,657.824, 1384.608,695.936z"  />
<glyph unicode="&#xe039;" d="M 380.592,723.872l 305.472,305.472l 153.744-153.744c-12.768-26.736-8.352-59.568, 13.824-81.696
	c 22.128-22.176, 55.008-26.592, 81.696-13.872l 157.968-157.968l-305.424-305.472L 380.592,723.872z M 955.44,895.712c-22.128,22.128-55.008,26.592-81.696,13.824
	L 720,1063.28l 237.552,237.552c 37.488,37.488, 98.304,37.488, 135.744,0l 271.584-271.488c 37.44-37.488, 37.44-98.304,0-135.744L 1127.28,656l-158.016,157.968
	C 982.032,840.752, 977.616,873.584, 955.44,895.712z M 414.528,78.992l-271.536,271.488l 271.536,271.536l 271.536-271.536L 414.528,78.992z M 348.768,352.688
	l-67.872,67.872l-70.032-70.032l 67.92-67.872L 348.768,352.688z M 484.512,216.896L 416.64,284.768l-69.984-69.984l 67.872-67.872L 484.512,216.896z"  />
<glyph unicode="&#xe03a;" d="M 1651.041,772.217C 1477.641,1020.728, 1190.106,1183.739, 864.081,1183.739C 538.92,1183.739, 252.138,1021.589, 78.486,774.125
	L 2.013,837.158C 193.809,1104.749, 506.97,1279.655, 861.78,1279.655c 356.823,0, 671.706-176.811, 863.22-446.919L 1651.041,772.217z M 864.081,991.832c 266.151,0, 500.538-135.555, 638.214-341.37
	l-73.311-59.982C 1309.671,773.765, 1101.843,895.877, 864.081,895.877C 626.895,895.877, 419.463,774.413, 300.006,592.136L 226.803,652.295C 364.695,857.030, 598.611,991.832, 864.081,991.832z M 864.081,704.009
	c 174.801,0, 326.205-96.888, 410.082-240.060l-73.026-59.766C 1136.559,524.969, 1010.598,608.054, 864.081,608.054c-146.121,0-271.794-82.62-336.591-202.938L 454.503,465.095
	C 538.524,607.661, 689.64,704.009, 864.081,704.009z M 864.081,416.15c 87.111,0, 159.852-58.434, 183.246-137.964L 864.081,128.324l-183.066,150.432C 704.625,358.112, 777.255,416.15, 864.081,416.15z" horiz-adv-x="1725"  />
<glyph unicode="&#xe03b;" d="M 1439.997,1280L 96,1280 C 42.987,1280,0,1237.064,0,1184l0-960 c0-53.064, 42.987-96, 96-96l 1343.997,0 
	C 1493.013,128, 1536,170.936, 1536,224L 1536,1184 C 1536,1237.064, 1493.013,1280, 1439.997,1280z M 1248,1088L 768,704L 288,1088L 1248,1088 z M 1344,320L 192,320 L 192,992 l 576-480
	l 576,480L 1344,320 z"  />
<glyph unicode="&#xe03c;" d="M 384,416L 864,416L 864,320L 384,320zM 384,608L 864,608L 864,512L 384,512zM 384,1088L 864,1088L 864,704L 384,704zM 1440,1280l-288,0 L 1152,1472 L 96,1472 C 42.936,1472,0,1429.016,0,1376l0-1344 c0-53.064, 42.936-96, 96-96l 1344,0 c 53.064,0, 96,42.936, 96,96L 1536,1184 
		C 1536,1237.016, 1493.064,1280, 1440,1280z M 1344,128L 192,128 L 192,1280 l 864,0 l0-960 l 96,0 L 1152,1088 l 192,0 L 1344,128 z"  />
<glyph unicode="&#xe03d;" d="M 1428.48,1164.8L 107.52,1164.8 C 48.384,1164.8,0,1116.416,0,1057.28l0-706.637 C0,291.584, 48.384,243.2, 107.52,243.2l 1320.96,0 c 59.213,0, 107.52,48.384, 107.52,107.443L 1536,1057.28 C 1536,1116.416, 1487.616,1164.8, 1428.48,1164.8
	z M 844.8,1011.2l 153.6,0 l0-153.6 l-153.6,0 L 844.8,1011.2 z M 1075.2,780.8l0-153.6 l-153.6,0 L 921.6,780.8 L 1075.2,780.8 z M 614.4,1011.2l 153.6,0 l0-153.6 L 614.4,857.6 L 614.4,1011.2 z M 844.8,780.8l0-153.6 L 691.2,627.2 L 691.2,780.8 L 844.8,780.8 z M 384,1011.2l 153.6,0 l0-153.6 L 384,857.6 L 384,1011.2 z M 614.4,780.8l0-153.6 L 460.8,627.2 L 460.8,780.8 L 614.4,780.8 z M 153.6,1011.2l 153.6,0 l0-153.6 L 153.6,857.6 L 153.6,1011.2 z M 384,780.8l0-153.6 L 230.4,627.2 L 230.4,780.8 L 384,780.8 z M 307.2,396.8
	L 153.6,396.8 l0,153.6 l 153.6,0 L 307.2,396.8 z M 1152,396.8L 384,396.8 l0,153.6 l 768,0 L 1152,396.8 z M 1382.4,396.8l-153.6,0 l0,153.6 l 153.6,0 L 1382.4,396.8 z M 1152,627.2L 1152,780.8 l 153.6,0 l0-153.6 L 1152,627.2 z M 1382.4,857.6l-307.2,0 L 1075.2,1011.2 l 307.2,0 L 1382.4,857.6 z"  />
<glyph unicode="&#xe03e;" d="M 1305.6,1395.2l-168.96,0 C 1094.246,1395.2, 1075.2,1360.794, 1075.2,1318.4l0-1305.6 l 307.2,0 L 1382.4,1318.4 C 1382.4,1360.794, 1348.070,1395.2, 1305.6,1395.2z M 844.8,934.4L 675.84,934.4 C 633.446,934.4, 614.4,899.994, 614.4,857.6l0-844.8 l 307.2,0 L 921.6,857.6 
	C 921.6,899.994, 887.27,934.4, 844.8,934.4z M 384,473.6L 215.040,473.6 C 172.646,473.6, 153.6,439.27, 153.6,396.8l0-384 l 307.2,0 l0,384 C 460.8,439.27, 426.394,473.6, 384,473.6z"  />
<glyph unicode="&#xe03f;" d="M 1392,1472L 336,1472 C 256.464,1472, 192,1407.584, 192,1328l0-96 L 144,1232 C 64.464,1232,0,1167.584,0,1088l0-960 
		c0-106.032, 85.968-192, 192-192l 1152,0 c 106.032,0, 192,85.968, 192,192L 1536,1328 C 1536,1407.584, 1471.488,1472, 1392,1472z M 1440,128c0-52.896-43.104-96-96-96L 192,32 c-52.944,0-96,43.104-96,96L 96,1088 
		c0,26.496, 21.504,48, 48,48l 48,0 l0-960 c0-26.544, 21.456-48, 48-48s 48,21.456, 48,48L 288,1328 c0,26.496, 21.504,48, 48,48l 1056,0 c 26.448,0, 48-21.504, 48-48L 1440,128 zM 935.904,847.76 C 922.704,847.76 911.904,858.512 911.904,871.76 C 911.904,885.008 922.704,895.76 935.904,895.76 L 1319.904,895.76 C 1333.2,895.76 1343.904,885.008 1343.904,871.76 C 1343.904,858.512 1333.2,847.76 1319.904,847.76 L 935.904,847.76 ZM 935.904,991.76 C 922.704,991.76 911.904,1002.512 911.904,1015.76 C 911.904,1029.008 922.704,1039.76 935.904,1039.76 L 1319.904,1039.76 C 1333.2,1039.76 1343.904,1029.008 1343.904,1015.76 C 1343.904,1002.512 1333.2,991.76 1319.904,991.76 L 935.904,991.76 ZM 935.904,1135.76 C 922.704,1135.76 911.904,1146.512 911.904,1159.76 C 911.904,1173.008 922.704,1183.76 935.904,1183.76 L 1319.904,1183.76 C 1333.2,1183.76 1343.904,1173.008 1343.904,1159.76 C 1343.904,1146.512 1333.2,1135.76 1319.904,1135.76 L 935.904,1135.76 ZM 792,175.808 C 805.248,175.808 816,165.008 816,151.808 C 816,138.512 805.2,127.808 792,127.808 L 408,127.808 C 394.752,127.808 384,138.512 384,151.808 C 384,165.008 394.752,175.808 408,175.808 L 792,175.808 ZM 792,319.808 C 805.248,319.808 816,309.008 816,295.808 C 816,282.512 805.2,271.808 792,271.808 L 408,271.808 C 394.752,271.808 384,282.512 384,295.808 C 384,309.008 394.752,319.808 408,319.808 L 792,319.808 ZM 792,463.808 C 805.248,463.808 816,453.008 816,439.808 C 816,426.512 805.2,415.808 792,415.808 L 408,415.808 C 394.752,415.808 384,426.512 384,439.808 C 384,453.008 394.752,463.808 408,463.808 L 792,463.808 ZM 1320,175.808 C 1333.2,175.808 1344,165.008 1344,151.808 C 1344,138.512 1333.2,127.808 1320,127.808 L 936,127.808 C 922.704,127.808 912,138.512 912,151.808 C 912,165.008 922.704,175.808 936,175.808 L 1320,175.808 ZM 1320,319.808 C 1333.2,319.808 1344,309.008 1344,295.808 C 1344,282.512 1333.2,271.808 1320,271.808 L 936,271.808 C 922.704,271.808 912,282.512 912,295.808 C 912,309.008 922.704,319.808 936,319.808 L 1320,319.808 ZM 1320,463.808 C 1333.2,463.808 1344,453.008 1344,439.808 C 1344,426.512 1333.2,415.808 1320,415.808 L 936,415.808 C 922.704,415.808 912,426.512 912,439.808 C 912,453.008 922.704,463.808 936,463.808 L 1320,463.808 ZM 1320,751.808 C 1333.2,751.808 1344,741.056 1344,727.808 C 1344,714.56 1333.2,703.808 1320,703.808 L 408,703.808 C 394.752,703.808 384,714.56 384,727.808 C 384,741.056 394.752,751.808 408,751.808 L 1320,751.808 ZM 1320,607.808 C 1333.2,607.808 1344,597.008 1344,583.808 C 1344,570.512 1333.2,559.808 1320,559.808 L 408,559.808 C 394.752,559.808 384,570.512 384,583.808 C 384,597.008 394.752,607.808 408,607.808 L 1320,607.808 ZM 432,848l 336,0 c 26.544,0, 48,21.456, 48,48L 816,1231.808 c0,26.544-21.456,48-48,48L 432,1279.808 
		c-26.544,0-48-21.456-48-48L 384,896 C 384,869.504, 405.456,848, 432,848z M 480,1184l 240,0 l0-240 l-240,0 L 480,1184 z"  />
<glyph unicode="&#xe040;" d="M 768,1472C 444.288,1472, 96,1374.416, 96,1160l0-912 C 96,33.68, 444.288-64, 768-64c 323.664,0, 672,97.68, 672,312l0,912 
		C 1440,1374.416, 1091.616,1472, 768,1472z M 1344,248c0-119.232-257.904-216-576-216c-318.144,0-576,96.768-576,216l0,179.328 C 291.168,325.136, 530.4,272, 768,272
		c 237.6,0, 476.832,53.136, 576,155.328L 1344,248 z M 1344,536l-0.192,0 c0-0.48, 0.192-1.008, 0.192-1.488C 1344,416, 1086.096,320, 768,320c-318.096,0-576,96-576,214.512
		c0,0.48, 0.192,1.008, 0.192,1.488L 192,536 l0,179.328 C 291.168,613.136, 530.4,560, 768,560c 237.6,0, 476.832,53.136, 576,155.328L 1344,536 z M 1344,824l-0.192,0 
		c0-0.48, 0.192-1.008, 0.192-1.488C 1344,704, 1086.096,608, 768,608c-318.096,0-576,96-576,214.512c0,0.48, 0.192,1.008, 0.192,1.488L 192,824 l0,164.928 
		C 317.808,893.072, 548.4,848, 768,848c 219.6,0, 450.192,45.072, 576,140.928L 1344,824 z M 768,944C 449.856,944, 192,1040.768, 192,1160C 192,1279.328, 449.856,1376, 768,1376
		c 318.096,0, 576-96.672, 576-216C 1344,1040.768, 1086.096,944, 768,944zM 1152,224A48,48 900 1 0 1248,224A48,48 900 1 0 1152,224zM 1152,512A48,48 900 1 0 1248,512A48,48 900 1 0 1152,512zM 1152,800A48,48 900 1 0 1248,800A48,48 900 1 0 1152,800z"  />
<glyph unicode="&#xe041;" d="M 992.736,1292.864C 970.032,1315.52, 939.936,1328, 907.872,1328s-62.16-12.48-84.96-35.184l-67.68-67.776
		C 732.528,1202.384, 720,1172.24, 720,1140.128c0-22.608, 6.192-44.256, 17.808-63.024L 86.112,816.032c-43.584-19.152-74.832-58.464-83.616-105.072
		c-8.88-46.896, 6-94.992, 40.032-128.976l 610.56-603.84c 26.304-26.304, 61.248-41.232, 98.16-42.096C 752.112-64, 754.128-64, 754.992-64
		c 9.696,0, 19.536,1.008, 29.28,2.976c 47.712,9.888, 86.784,42.864, 104.496,87.744l 256.416,642.048c 19.296-12.72, 42-19.536, 65.616-19.536
		c 32.16,0, 62.256,12.528, 84.864,35.184L 1363.2,752c 22.896,22.752, 35.424,52.944, 35.424,85.104s-12.576,62.4-35.136,84.864L 992.736,1292.864z
		 M 799.632,62.384c-5.952-15.024-19.056-26.112-34.896-29.376c-3.648-0.768-7.344-1.056-10.992-1.008c-12.192,0.288-23.952,5.184-32.736,14.016
		L 110.064,650.24c-11.232,11.184-16.176,27.216-13.2,42.864c 2.928,15.552, 13.392,28.704, 27.936,35.040l 298.416,119.52
		c 201.072-66.864, 402.192-2.448, 603.36-217.056L 799.632,62.384z M 1295.616,820.16l-67.872-67.824c-9.36-9.408-24.576-9.408-33.936,0l-84.864,84.816
		l-68.736-172.272l 5.712,14.544c-144.48,144.24-291.312,162.432-423.792,178.704c-42.576,5.232-83.856,10.704-124.416,19.44l 407.568,163.248l-82.32,82.32
		c-9.36,9.36-9.36,24.576,0,33.936l 67.872,67.92c 9.36,9.36, 24.576,9.36, 33.936,0l 370.8-370.896
		C 1305.072,844.736, 1305.072,829.52, 1295.616,820.16zM 792,464c 66.144,0, 120,53.808, 120,120S 858.192,704, 792,704c-66.192,0-120-53.808-120-120S 725.856,464, 792,464z
		 M 792,656c 39.744,0, 72-32.256, 72-72S 831.744,512, 792,512c-39.792,0-72,32.256-72,72S 752.208,656, 792,656zM 1416,1472C 1349.808,1472, 1296,1418.192, 1296,1352S 1349.808,1232, 1416,1232S 1536,1285.808, 1536,1352S 1482.192,1472, 1416,1472z M 1416,1280
		C 1376.256,1280, 1344,1312.256, 1344,1352S 1376.256,1424, 1416,1424S 1488,1391.744, 1488,1352S 1455.744,1280, 1416,1280zM 384,656c0-52.944, 43.056-96, 96-96s 96,43.056, 96,96s-43.056,96-96,96S 384,708.944, 384,656z M 480,704c 26.496,0, 48-21.456, 48-48
		s-21.504-48-48-48s-48,21.456-48,48S 453.504,704, 480,704zM 576,368A48,48 900 1 0 672,368A48,48 900 1 0 576,368zM 1344,1088A48,48 900 1 0 1440,1088A48,48 900 1 0 1344,1088z"  />
<glyph unicode="&#xe042;" d="M0,128L 1536,128L 1536,32L0,32zM 1536,320 L 1536,224 L 0,224 L 0,320 L 192,704 L 576,704 L 576,512 L 960,512 L 960,704 L 1344,704 ZM 336,992 L 768,1424 L 1200,992 L 864,992 L 864,608 L 672,608 L 672,992 Z"  />
<glyph unicode="&#x20;" horiz-adv-x="768" />
</font>
</defs>
</svg>
