<?xml version="1.0" standalone="no"?>
<!DOCTYPE svg PUBLIC "-//W3C//DTD SVG 1.1//EN" "http://www.w3.org/Graphics/SVG/1.1/DTD/svg11.dtd" >
<svg xmlns="http://www.w3.org/2000/svg">
<metadata>
This is a custom SVG font generated by IcoMoon.
<iconset grid="20"></iconset>
</metadata>
<defs>
<font id="icomoon" horiz-adv-x="640" >
<font-face units-per-em="640" ascent="608" descent="-32" />
<missing-glyph horiz-adv-x="640" />
<glyph class="hidden" unicode="&#xf000;" d="M0,608L 640 -32L0 -32 z" horiz-adv-x="0" />
<glyph unicode="&#xf0ae;" d="M 365.714,105.143l 228.571,0 l0,45.714 l-228.571,0 l0-45.714 zM 228.571,288l 365.714,0 l0,45.714 l-365.714,0 l0-45.714 zM 457.143,470.857l 137.143,0 l0,45.714 l-137.143,0 l0-45.714 zM 640,173.714l0-91.429 q0-9.286 -6.786-16.071t-16.071-6.786l-594.286,0 q-9.286,0 -16.071,6.786t-6.786,16.071l0,91.429 q0,9.286 6.786,16.071t 16.071,6.786l 594.286,0 q 9.286,0 16.071-6.786t 6.786-16.071zM 640,356.571l0-91.429 q0-9.286 -6.786-16.071t-16.071-6.786l-594.286,0 q-9.286,0 -16.071,6.786 t-6.786,16.071l0,91.429 q0,9.286 6.786,16.071t 16.071,6.786l 594.286,0 q 9.286,0 16.071-6.786t 6.786-16.071zM 640,539.429l0-91.429 q0-9.286 -6.786-16.071t-16.071-6.786l-594.286,0 q-9.286,0 -16.071,6.786t-6.786,16.071l0,91.429 q0,9.286 6.786,16.071t 16.071,6.786l 594.286,0 q 9.286,0 16.071-6.786t 6.786-16.071z" data-tags="tasks, bars" />
<glyph unicode="&#xf0c3;" d="M 545.089,90.857q 20-31.786 7.679-54.464t-50.179-22.679l-411.429,0 q-37.857,0 -50.179,22.679t 7.679,54.464l 179.643,283.214l0,142.5 l-22.857,0 q-9.286,0 -16.071,6.786t-6.786,16.071t 6.786,16.071t 16.071,6.786l 182.857,0 q 9.286,0 16.071-6.786t 6.786-16.071t-6.786-16.071t-16.071-6.786l-22.857,0 l0-142.5 zM 266.875,349.786l-97.143-153.214l 254.286,0 l-97.143,153.214l-7.143,11.071l0,13.214 l0,142.5 l-45.714,0 l0-142.5 l0-13.214 z" horiz-adv-x="593.75" data-tags="beaker, lab, beta, experiment, test" />
<glyph unicode="&#xf01c;" d="M 365.134,265.143l 112.857,0 q-0.357,1.071 -0.893,2.857t-0.893,2.857l-75.714,177.143l-252.857,0 l-75.714-177.143q-0.357-0.714 -0.893-2.857t-0.893-2.857l 112.857,0 l 33.929-68.571l 114.286,0 zM 548.348,254.429l0-172.143 q0-9.286 -6.786-16.071t-16.071-6.786l-502.857,0 q-9.286,0 -16.071,6.786t-6.786,16.071l0,172.143 q0,22.143 8.929,43.929l 85,197.143q 3.571,8.929 13.036,15t 18.75,6.071l 297.143,0 q 9.286,0 18.75-6.071t 13.036-15l 85-197.143 q 8.929-21.786 8.929-43.929z" horiz-adv-x="548.125" data-tags="inbox, drawer, storage, archive" />
<glyph unicode="&#xe000;" d="M 520,568L 120,568 L0,448l0-420 c0-11.046, 8.954-20, 20-20l 600,0 c 11.045,0, 20,8.954, 20,20L 640,448 L 520,568z M 320,88L 120,248l 120,0 l0,120 l 160,0 l0-120 l 120,0 
	L 320,88z M 96.569,488l 40,40l 366.861,0 l 40-40L 96.569,488 z" data-tags="box-add, storage, inbox, archive, download" />
<glyph unicode="&#xe001;" d="M 440,488L 200,488 L0,248l0-160 c0-22.091, 17.909-40, 40-40l 560,0 c 22.093,0, 40,17.909, 40,40L 640,248 L 440,488z M 400,168L 240,168 l-40,40l 240,0 
		L 400,168z M 52.069,248l 166.666,200l 202.53,0 l 166.666-200L 52.069,248 zM 178.102,368L 461.897,368L 428.564,408L 211.435,408 	zM 111.436,288L 528.565,288L 495.231,328L 144.769,328 	z" data-tags="drawer, inbox, box, archive, storage, category" />
<glyph unicode="&#xe002;" d="M 180,368L 60,368 c-11,0-20-9-20-20l0-360 c0-11, 9-20, 20-20l 120,0 c 11,0, 20,9, 20,20L 200,348 C 200,359, 191,368, 180,368z M 180,8
		L 60,8 L 60,168 l 120,0 L 180,8 zM 380,448l-120,0 c-11,0-20-9-20-20l0-440 c0-11, 9-20, 20-20l 120,0 c 11,0, 20,9, 20,20L 400,428 C 400,439, 391,448, 380,448z
		 M 380,8l-120,0 L 260,208 l 120,0 L 380,8 zM 580,528l-120,0 c-11,0-20-9-20-20l0-520 c0-11, 9-20, 20-20l 120,0 c 11,0, 20,9, 20,20L 600,508 C 600,519, 591,528, 580,528z M 580,8l-120,0 
		L 460,248 l 120,0 L 580,8 z" data-tags="bars, stats, statistics, chart, graph" />
<glyph unicode="&#xe003;" d="M 597.681,105.199L 400,434.589L 400,568 l 20,0 c 11,0, 20,9, 20,20s-9,20-20,20L 220,608 c-11,0-20-9-20-20s 9-20, 20-20l 20,0 l0-133.411 
	L 42.32,105.199C-2.956,29.74, 32-32, 120-32l 400,0 C 608-32, 642.956,29.74, 597.681,105.199z M 150.649,208L 280,423.586L 280,568 l 80,0 
	l0-144.414 L 489.353,208L 150.649,208 z" data-tags="lab, beta, test, experiment" />
<glyph unicode="&#xe004;" d="M 580,528L 60,528 C 26.86,528,0,501.14,0,468l0-360 c0-33.12, 26.86-60, 60-60l 520,0 c 33.14,0, 60,26.88, 60,60L 640,468 C 640,501.14, 613.14,528, 580,528z M 54.82,88.2
	L 40.2,102.84l 164.98,164.96l 14.62-14.64L 54.82,88.2z M 585.18,88.2l-164.98,164.96l 14.62,14.64l 164.98-164.96L 585.18,88.2z M 340,221.5
	L 340,208 l-40,0 l0,13.5 L 40.060,462.5l 25.44,25.44L 320,251.98L 574.5,487.94l 25.44-25.44L 340,221.5z" data-tags="envelope, mail, email, contact" />
<glyph unicode="&#xe005;" d="M 581.818-32c0,0-465.454,0-523.636,0s-58.182,58.182-58.182,58.182L0,346.182 l 145.454,261.818l 349.091,0 l 145.454-261.818c0,0,0-261.818,0-320S 581.818-32, 581.818-32z M 203.636,142.546
	c0,0,0-29.091, 29.091-29.091s 174.546,0, 174.546,0s 29.091,0, 29.091,29.091s0,29.091,0,29.091s0,29.091-29.091,29.091c-87.272,0-174.546,0-174.546,0s-29.091,0-29.091-29.091S 203.636,142.546, 203.636,142.546z M 465.454,549.818L 174.546,549.818 L 72.728,346.182l 494.546,0 L 465.454,549.818z M 450.909,433.454L 465.454,404.364L 174.546,404.364 l 14.546,29.091L 450.909,433.454 z
	 M 218.182,491.636l 203.636,0 L 436.364,462.546L 203.636,462.546 L 218.182,491.636z M 378.182,142.546L 261.818,142.546 l0,29.091 l 116.364,0 L 378.182,142.546 z" data-tags="archive, cabinet, drawer, category" />
<glyph unicode="&#xe006;" d="M 560,28L 80,28 c-22.080,0-40,17.92-40,40l0,180 l 80,0 l0-60 l 80,0 l0,60 l 240,0 l0-60 l 80,0 l0,60 l 80,0 l0-180 
	C 600,45.92, 582.080,28, 560,28z M 460,208l0,80 l 40,0 l0-80 L 460,208 z M 140,208l0,80 l 40,0 l0-80 L 140,208 z M 520,308l-80,0 l0-40 L 200,268 l0,40 L 120,308 l0-40 L 40,268 l0,140 c0,22.080, 17.92,40, 40,40l 480,0 
	c 22.080,0, 40-17.92, 40-40l0-140 l-80,0 L 520,308 z M 380,508.42l-120,0 L 260,468 l-40,0 L 220,487.58 l 20,0 L 240,548 l 160.42,0 l0-60 L 420,488 l0-20 l-40,0 L 380,508.42 z" data-tags="suitcase, briefcase" />
<glyph unicode="&#xe007;" d="M 540,28L 80,28 c-22.1,0-40,17.92-40,40L 40,308 c0,0, 104.42-53.7, 200-75.68L 240,208 
	c0-11.060, 8.94-20, 20-20l 100,0 c 11.040,0, 20,8.94, 20,20l0,24.32 C 475.56,254.3, 580,308, 580,308l0-240 C 580,45.92, 562.080,28, 540,28z M 340,268
	c 11.040,0, 20-8.94, 20-20l0-20 c0-11.060-8.96-20-20-20l-60,0 c-11.060,0-20,8.94-20,20l0,20 c0,11.060, 8.94,20, 20,20L 340,268 z M 380,268c0,11.060-8.96,20-20,20l-100,0 
	c-11.060,0-20-8.94-20-20l0-17.92 C 144.42,272.72, 40,328, 40,328l0,80 c0,22.080, 17.9,40, 40,40l 120,0 L 200,488 c0,22.080, 17.92,40, 40,40l 140,0 c 22.080,0, 40-17.92, 40-40l0-40 l 120,0 
	c 22.080,0, 40-17.92, 40-40l0-80 c0,0-104.44-55.28-200-77.92L 380,268 z M 380,468c0,11.060-8.96,20-20,20l-100,0 c-11.060,0-20-8.94-20-20c0-11.040,0-20,0-20l 140,0 
	C 380,448, 380,456.96, 380,468z" data-tags="suitcase, briefcase" />
<glyph unicode="&#xe008;" d="M 540,28l-80,0 L 460,448 l 80,0 c 22.080,0, 40-17.92, 40-40l0-340 C 580,45.92, 562.080,28, 540,28z M 200,448L 200,448L 200,488 
	c0,22.1, 17.92,40, 40,40l 140,0 c 22.080,0, 40-17.9, 40-40l0-40 l0-420 L 200,28 L 200,448 z M 240,448l 140,0 c0,0,0,8.96,0,20c0,11.060-8.96,20-20,20l-100,0 c-11.060,0-20-8.94-20-20
	C 240,456.96, 240,448, 240,448z M 40,68L 40,408 c0,22.080, 17.92,40, 40,40l 80,0 l0-420 L 80,28 C 57.92,28, 40,45.92, 40,68z" data-tags="suitcase, briefcase" />
<glyph unicode="&#xe009;" d="M 500.84,234.56L 500.84,484.3 c0,24.68-20,44.72-44.72,44.72L 64.7,529.020 
			C 40,529.040, 19.98,509, 19.98,484.3l0-249.74 c0-24.7, 20.020-44.72, 44.72-44.72l 74.58,0 l0-102.74l 114.080,102.74l 202.74,0 
			C 480.84,189.84, 500.84,209.86, 500.84,234.56z M 575.3,430.84l-55.96,0 c0,0,0-199.44,0-218.18s-24.32-42.84-43.060-42.84
			s-218.9-1.1-218.9-1.1c0-24.7, 20.020-39.72, 44.72-39.72l 86.18,0 l 112.44-102.040l-0.14,102.040l 74.72,0 
			c 24.72,0, 44.72,15.020, 44.72,39.72L 620.020,387.36 C 620.020,412.040, 600.020,430.84, 575.3,430.84z" data-tags="chat, comments, bubble, talk" />
<glyph unicode="&#xe00a;" d="M0,168c0-29.466, 23.866-53.334, 53.334-53.334l 80,0 l0-82.266 c0-14.8, 12-26.666, 26.666-26.666
	c 7.48,0, 14.254,3.066, 19.066,8L 280,114.666l 293.334,0 c 29.466,0, 53.334,23.866, 53.334,53.334L 626.666,501.334 c0,29.466-23.866,53.334-53.334,53.334L 53.334,554.666 C 23.866,554.666,0,530.8,0,501.334L0,168 z M 160,321.334
	c0,18.4, 14.934,33.334, 33.334,33.334s 33.334-14.934, 33.334-33.334S 211.734,288, 193.334,288S 160,302.934, 160,321.334z M 280,321.334c0,18.4, 14.934,33.334, 33.334,33.334s 33.334-14.934, 33.334-33.334
	S 331.734,288, 313.334,288S 280,302.934, 280,321.334z M 400,321.334c0,18.4, 14.934,33.334, 33.334,33.334s 33.334-14.934, 33.334-33.334S 451.734,288, 433.334,288S 400,302.934, 400,321.334z" data-tags="chat, bubble, comment, talk" />
<glyph unicode="&#xe00b;" d="M0,101.334c0-29.466, 23.866-53.334, 53.334-53.334l 533.334,0 c 29.466,0, 53.334,23.866, 53.334,53.334L 640,461.334 c0,29.466-23.866,53.334-53.334,53.334L 53.334,514.666 
	c-29.466,0-53.334-23.866-53.334-53.334L0,101.334 z M 196.266,280.934l-122,122.8c-10.12,10.134-10.12,26.534,0,36.666c 10.146,10.134, 26.546,10.134, 36.666,0L 305.6,245.48
	c 7.866-7.734, 20.814-7.734, 28.546,0L 529.066,440.4c 10.134,10.134, 26.534,10.134, 36.666,0c 10.134-10.134, 10.134-26.534,0-36.666l-122.134-122.8l 122.134-121.986
	c 10.134-10.134, 10.134-26.534,0-36.666s-26.534-10.134-36.666,0l-122,121.866c0,0-38.12-38.8-45.054-45.734C 351.2,187.866, 336.266,181.334, 320,181.334
	c-16.534,0-31.466,6.666-42.266,17.48c-7.066,6.934-44.934,45.32-44.934,45.32l-121.88-121.866c-10.12-10.134-26.52-10.134-36.666,0
	c-10.12,10.134-10.12,26.534,0,36.666L 196.266,280.934z" data-tags="envelope, letter, email, mail" />
<glyph unicode="&#xe00c;" d="M 93.334,21.334c0-29.466, 23.866-53.334, 53.334-53.334l 333.334,0 c 29.466,0, 53.334,23.866, 53.334,53.334L 533.334,574.666 C 533.334,593.066, 518.4,608, 500,608
	S 466.666,593.066, 466.666,574.666L 466.666,541.334 L 146.666,541.334 C 117.2,541.334, 93.334,517.466, 93.334,488L 93.334,21.334 z M 189.334,474.666l 248,0 c 16.266,0, 29.334-13.066, 29.334-29.334l0-141.334 c0-16.266-13.066-29.334-29.334-29.334L 189.334,274.666 
	c-16.266,0-29.334,13.066-29.334,29.334L 160,445.334 C 160,461.6, 173.066,474.666, 189.334,474.666z M 160,188c0,18.4, 14.934,33.334, 33.334,33.334s 33.334-14.934, 33.334-33.334S 211.734,154.666, 193.334,154.666
	S 160,169.6, 160,188z M 280,188c0,18.4, 14.934,33.334, 33.334,33.334s 33.334-14.934, 33.334-33.334S 331.734,154.666, 313.334,154.666S 280,169.6, 280,188z M 400,188
	c0,18.4, 14.934,33.334, 33.334,33.334s 33.334-14.934, 33.334-33.334S 451.734,154.666, 433.334,154.666S 400,169.6, 400,188z M 160,68c0,18.4, 14.934,33.334, 33.334,33.334s 33.334-14.934, 33.334-33.334
	S 211.734,34.666, 193.334,34.666S 160,49.6, 160,68z M 280,68c0,18.4, 14.934,33.334, 33.334,33.334s 33.334-14.934, 33.334-33.334S 331.734,34.666, 313.334,34.666S 280,49.6, 280,68z
	 M 400,68c0,18.4, 14.934,33.334, 33.334,33.334s 33.334-14.934, 33.334-33.334S 451.734,34.666, 433.334,34.666S 400,49.6, 400,68z" data-tags="phone, cellular" />
<glyph unicode="&#xe00d;" d="M 321.040,9.080c 54.654-54.8, 143.2-54.8, 197.854,0
	c 34.014,34, 46.934,81.066, 38.546,125.066c 14.4,7.334, 27.32,15.866, 38.12,23.866c 1.2,0.934, 6.534,4.666, 7.866,5.734c 6.014,4.934, 9.866,12.4, 9.866,20.814
	c0,8-3.466,15.2-9.066,20l-110,90.666c-4.534,3.734-10.386,6-16.8,6c-7.214,0-13.746-2.8-18.546-7.334
	c-1.88-1.866-18.386-18.8-18.386-18.8c-11.48-11.466-30-11.466-41.48,0l-112.254,112.4c-11.466,11.466-11.466,30.134,0,41.6l 18.266,18.266
	c 4.8,4.8, 7.6,11.466, 7.6,18.654c0,7.2-2.8,13.614-7.334,18.4l-94.266,113.866c-4.934,5.866-12.4,9.734-20.666,9.734
	c-8.8,0-16.534-4.266-21.466-10.8l-1.6-2.134c-20.534-27.734-47.334-71.734-47.334-113.066c0-113.866, 253.88-367.334, 366.666-367.334
	c 2.134,0, 4.266,0.134, 6.28,0.134c 2-20.934-5.080-42.52-21.066-58.666c-28.666-28.654-75.080-28.654-103.746,0l-184.12,189.2
	c-39.066,39.066-102.266,39.066-141.334,0c-39.066-39.066-39.066-102.266,0-141.334l 60.4-59.6c 13.066-12.946, 34.134-12.946, 47.2,0c 12.934,13.054, 12.934,34.134,0,47.186
	l-60.534,59.48c-12.934,13.054-12.934,34.134,0,47.186c 13.066,12.946, 34.134,12.946, 47.2,0L 321.040,9.080z" data-tags="phone, contact" />
<glyph unicode="&#xe00e;" d="M 217.6,288c0-56.544, 45.856-102.4, 102.4-102.4s 102.4,45.888, 102.4,102.4c0,56.544-45.856,102.4-102.4,102.4
	S 217.6,344.544, 217.6,288z M 144.928,326.4C 162.496,406.912, 234.208,467.2, 320,467.2c 49.504,0, 94.272-20.064, 126.688-52.48c 15.008-15.008, 39.328-15.008, 54.336,0
	c 14.976,15.008, 14.976,39.328,0,54.304C 454.688,515.328, 390.688,544, 320,544C 205.376,544, 108.352,468.672, 75.744,364.8L0,364.8 L0,288 l 102.4,0 
	C 134.368,288, 142.208,314.016, 144.928,326.4z M 537.6,288c-31.936,0-39.808-26.016-42.528-38.4C 477.504,169.088, 405.824,108.8, 320,108.8
	c-49.472,0-94.272,20.032-126.688,52.48c-15.008,15.008-39.328,15.008-54.304,0s-15.008-39.328,0-54.304C 185.312,60.672, 249.312,32, 320,32
	c 114.624,0, 211.648,75.328, 244.256,179.2L 640,211.2 L 640,288 L 537.6,288 z" data-tags="sharable, share, spread" />
<glyph unicode="&#xe00f;" d="M 533.34,608L 106.677,608 C 48.008,608,0,559.991,0,501.32l0-426.641 C0,15.967, 48.008-32, 106.677-32l 426.662,0.001
	c 58.672,0, 106.66,47.966, 106.66,106.68L 640,501.32 C 640,559.991, 592.011,608, 533.34,608z M 544.12,288L 440,288 l0-280 l-120,0 L 320,288 l-57.829,0 l0,91.602 L 320,379.603 
	l0,59.491 C 320,519.933, 354.87,568, 449.919,568l 109.528,0 l0-99.106 l-89.456,0 c-26.551,0.044-29.845-13.845-29.845-39.695L 440,379.603l 120,0 
	L 544.12,288z" data-tags="facebook, social" />
<glyph unicode="&#xe010;" d="M 533.75,608L 106.25,608 C 47.813,608,0,560.187,0,501.75l0-427.5 c0-58.438, 47.813-106.25, 106.25-106.25l 427.5,0 c 58.438,0, 106.25,47.813, 106.25,106.25L 640,501.75 C 640,560.187, 592.188,608, 533.75,608z
	 M 204.875,328l 230.25,0 c 4.368-12.536, 6.75-25.994, 6.75-40c0-67.203-54.672-121.875-121.875-121.875c-67.203,0-121.875,54.672-121.875,121.875
	C 198.125,302.006, 200.507,315.464, 204.875,328z M 560,327.969L 560,168 l0-80 c0-22-18-40-40-40L 120,48 c-22,0-40,18-40,40l0,80 L 80,327.969 L 80,328 
	l 62.568,0 c-2.901-12.876-4.442-26.26-4.442-40c0-100.286, 81.589-181.875, 181.875-181.875c 100.286,0, 181.875,81.589, 181.875,181.875
	c0,13.74-1.54,27.124-4.442,40L 560,328 L 560,327.969 z M 560,468c0-11-9-20-20-20l-40,0 c-11,0-20,9-20,20L 480,508 c0,11, 9,20, 20,20l 40,0 
	c 11,0, 20-9, 20-20L 560,468 z" data-tags="instagram, social" />
<glyph unicode="&#xe011;" d="M 533.339,608L 106.679,608 C 48.008,608,0,559.994,0,501.319l0-426.639 C0,15.969, 48.008-32, 106.679-32l 426.66,0 
	C 592.011-32, 640,15.969, 640,74.681L 640,501.319 C 640,559.994, 592.011,608, 533.339,608z M 523.783,394.354
	c 0.205-4.589, 0.306-9.205, 0.306-13.842c0-141.384-105.76-304.418-299.161-304.418c-59.378,0-114.646,17.718-161.179,48.074
	c 8.225-0.993, 16.595-1.496, 25.081-1.496c 49.264,0, 94.599,17.106, 130.584,45.801c-46.010,0.862-84.84,31.797-98.221,74.301
	c 6.421-1.25, 13.008-1.921, 19.782-1.921c 9.59,0, 18.879,1.31, 27.7,3.755c-48.1,9.832-84.344,53.072-84.344,104.91
	c0,0.451,0,0.899, 0.010,1.345c 14.175-8.012, 30.39-12.825, 47.625-13.381c-28.214,19.186-46.776,51.932-46.776,89.055
	c0,19.606, 5.184,37.986, 14.236,53.786c 51.859-64.731, 129.335-107.325, 216.721-111.789c-1.794,7.832-2.724,15.998-2.724,24.384
	c0,59.086, 47.079,106.988, 105.144,106.988c 30.244,0, 57.574-12.991, 76.751-33.786c 23.95,4.798, 46.453,13.7, 66.77,25.964
	c-7.851-24.985-24.521-45.951-46.229-59.194c 21.266,2.586, 41.532,8.338, 60.388,16.846C 562.156,428.282, 544.329,409.437, 523.783,394.354
	z" data-tags="twitter, tweet, social" />
<glyph unicode="&#xe012;" d="M 533.319,608L 106.681,608 C 48.006,608,0,560.010,0,501.339l0-426.66 C0,16.006, 48.006-32, 106.681-32l 426.639,0 
	C 592.031-32, 640,16.006, 640,74.679L 640,501.339 C 640,560.010, 592.031,608, 533.319,608z M 160,448l 320,0 c 5.711,0, 11.253-1.226, 16.34-3.539
	L 320,238.731L 143.66,444.462C 148.748,446.773, 154.289,448, 160,448z M 120,168L 120,408 c0,0.838, 0.035,1.67, 0.088,2.5l 117.29-136.838
	L 121.379,157.663C 120.476,160.999, 120,164.466, 120,168z M 480,128L 160,128 c-3.534,0-7.001,0.476-10.337,1.379l 113.824,113.824L 320,177.267
	l 56.515,65.934l 113.823-113.824C 487,128.476, 483.534,128, 480,128z M 520,168c0-3.534-0.476-7-1.379-10.337l-115.999,115.999L 519.913,410.5
	c 0.053-0.83, 0.088-1.663, 0.088-2.5L 520,168 z" data-tags="mail, contact, support, newsletter, letter, email, envelop, social" />
<glyph unicode="&#xe013;" d="M 0.504,64.46c-0.152,1.583-0.283,3.169-0.365,4.769C 0.22,67.629, 0.351,66.043, 0.504,64.46zM 147.442,254.782c 57.506-1.711, 96.084,57.936, 86.164,133.249c-9.934,75.3-64.623,135.73-122.13,137.451
		c-57.516,1.706-96.088-55.926-86.157-131.25C 35.245,318.94, 89.914,256.499, 147.442,254.782zM 640,448L 640,501.319 C 640,559.994, 592.011,608, 533.339,608L 106.679,608 C 49.006,608, 1.671,561.605, 0.076,504.296
		c 36.476,32.116, 87.078,58.948, 139.296,58.948c 55.815,0, 223.278,0, 223.278,0l-49.967-42.261l-70.793,0 
		c 46.956-18.002, 71.972-72.578, 71.972-128.576c0-47.030-26.131-87.471-63.055-116.23c-36.027-28.064-42.858-39.817-42.858-63.674
		c0-20.361, 38.591-55, 58.77-69.242c 58.989-41.586, 78.072-80.195, 78.072-144.66c0-10.268-1.276-20.519-3.791-30.6l 192.339,0 
		C 592.011-32, 640,15.969, 640,74.681L 640,407.999 l-120,0 L 520,288 l-40,0 l0,120 l-119.999,0 l0,40 L 480,448 L 480,568 l 40,0 l0-120 L 640,448 zM 116.179,129.29c 13.509,0, 25.889,0.369, 38.71,0.369c-16.966,16.459-30.391,36.625-30.391,61.487
		c0,14.755, 4.728,28.96, 11.334,41.575c-6.739-0.481-13.619-0.621-20.704-0.621c-46.472,0-85.941,15.047-115.127,39.909l0-42.026 
		l 0.004-126.081C 33.404,119.76, 73.059,129.29, 116.179,129.29zM 2.138,53.464c-0.695,3.411-1.229,6.879-1.589,10.396C 0.907,60.342, 1.442,56.875, 2.138,53.464zM 284.656,12.471c-9.411,36.754-42.784,54.977-89.305,87.23c-16.92,5.457-35.559,8.671-55.559,8.88
		c-56.011,0.603-108.192-21.839-137.635-55.233C 12.107,4.783, 55.304-32, 106.679-32l 179.028,0 c 1.135,6.955, 1.685,14.145, 1.685,21.52
		C 287.391-2.646, 286.433,5.015, 284.656,12.471z" data-tags="google plus, social" />
<glyph unicode="&#xe014;" d="M 533.337,608L 106.679,608 C 48.006,608,0,559.992,0,501.32l0-426.643 C0,15.969, 48.008-32, 106.68-32L 533.337-32 
	c 58.672,0, 106.662,47.968, 106.662,106.677L 640,501.32 C 640,559.992, 592.010,608, 533.337,608z M 174.34,88.47C 144.359,88.47, 120,112.652, 120,142.613
	c0,29.802, 24.358,54.258, 54.34,54.258c 30.099,0, 54.413-24.455, 54.413-54.258C 228.751,112.652, 204.438,88.47, 174.34,88.47z
	 M 310.918,88.003c0,51.131-19.88,99.261-55.912,135.278c-36.071,36.094-83.985,56.016-134.94,56.016L 120.065,357.537 
	c 148.532,0, 269.454-120.901, 269.454-269.534L 310.918,88.003L 310.918,88.003z M 449.768,88.003
	c0,181.914-147.911,329.963-329.61,329.963L 120.157,496.245 c 225.001,0, 408.091-183.203, 408.091-408.245L 449.768,88.003L 449.768,88.003z" data-tags="feed, rss, social" />
<glyph unicode="&#xe015;" d="M 164.67,133.395c0-16.907, 14.309-25.364, 42.918-25.364c 25.040,0, 37.555,8.776, 37.555,26.334
		c0,16.586-13.654,24.872-40.965,24.872C 177.836,159.24, 164.67,150.627, 164.67,133.395zM 533.342,608L 106.68,608 C 48.008,608,0,559.994,0,501.32l0-426.641 C0,15.969, 48.008-32, 106.68-32l 426.662,0 
		C 592.010-32, 640,15.969, 640,74.68L 640,501.32 C 640,559.994, 592.011,608, 533.342,608z M 297.33,352.382
		c-4.553-1.627-11.055-3.411-19.508-5.366c 2.6-7.479, 3.904-14.47, 3.904-20.971c0-20.808-6.261-38.936-18.777-54.383
		c-12.519-15.442-28.695-24.629-48.529-27.554c-13.002-1.954-19.505-8.945-19.505-20.974c0-4.226, 2.111-8.456, 6.34-12.681
		c 5.527-6.179, 13.655-10.083, 24.386-11.709c 46.494-7.151, 69.741-26.496, 69.741-58.034c0-50.401-30.078-75.601-90.226-75.601
		c-24.714,0-45.035,4.391-60.965,13.169c-20.161,11.055-30.235,28.45-30.235,52.188c0,27.315, 15.12,46.010, 45.352,56.086l0,0.975 
		c-11.053,6.827-16.579,17.231-16.579,31.215c0,18.207, 5.202,29.59, 15.605,34.139l0,0.976 c-10.404,3.578-19.671,11.707-27.8,24.39
		c-9.102,13.658-13.656,28.287-13.656,43.894c0,23.411, 8.294,42.919, 24.87,58.525c 15.935,14.634, 34.955,21.947, 57.066,21.947
		c 15.934,0, 30.724-3.899, 44.381-11.701c 15.606,0, 33.651,3.9, 54.141,11.701L 297.33,352.382L 297.33,352.382z M 376.361,183.629
		l-55.116,0 c 0.651,6.501, 0.974,17.552, 0.974,33.165L 322.219,368.476 c0,15.284-0.326,25.852-0.974,31.699l 55.116,0 
		c-0.651-6.178-0.976-16.419-0.976-30.727l0-149.727 C 375.385,203.136, 375.711,191.105, 376.361,183.629z M 372.699,448.949
		c-6.665-7.153-14.551-10.726-23.654-10.726c-9.429,0-17.474,3.574-24.141,10.726c-6.666,7.157-10.001,15.608-10.001,25.361
		c0,10.084, 3.335,18.695, 10.001,25.854c 6.666,7.151, 14.712,10.73, 24.141,10.73c 9.102,0, 16.99-3.579, 23.654-10.73
		c 6.666-7.16, 9.999-15.769, 9.999-25.854C 382.697,464.556, 379.365,456.105, 372.699,448.949z M 526.056,189.97
		c-12.034-6.506-26.504-9.754-43.411-9.754c-23.731,0-40.155,8.45-49.256,25.359c-6.831,12.681-10.241,32.675-10.241,59.988l0,87.302 
		l 0.486,0 l0,0.976 l-7.316,0.489c-4.228,0-9.758-0.489-16.584-1.464L 399.734,400.175 l 23.896,0 l0,19.020 c0,9.106-0.486,16.425-1.462,21.95l 56.574,0 
		c-0.969-6.175-1.46-13.166-1.46-20.97l0-19.999 l 42.429,0 l0-47.307 c-1.624,0-4.631,0.161-9.023,0.486
		c-4.39,0.326-8.535,0.491-12.436,0.491l-20.971,0 l0-90.715 c0-21.79, 7.156-32.681, 21.459-32.681c 10.079,0, 19.185,2.761, 27.317,8.29
		L 526.056,189.97 L 526.056,189.97zM 200.76,357.746c-20.485,0-30.727-12.034-30.727-36.091c0-22.439, 10.243-33.655, 30.727-33.655
		c 19.835,0, 29.751,11.38, 29.751,34.141c0,9.431-2.275,17.559-6.826,24.389C 218.156,354.006, 210.514,357.746, 200.76,357.746z" data-tags="github, social" />
<glyph unicode="&#xe016;" d="M 532.5,608L 107.5,608 C 48.375,608,0,559.625,0,500.5l0-425 c0-59.125, 48.375-107.5, 107.5-107.5l 425,0 c 59.125,0, 107.5,48.375, 107.5,107.5L 640,500.5 C 640,559.625, 591.625,608, 532.5,608z M 240,88l-80,0 
	L 160,368 l 80,0 L 240,88 z M 200,408c-22.091,0-40,17.909-40,40s 17.909,40, 40,40s 40-17.909, 40-40S 222.091,408, 200,408z M 520,88l-80,0 L 440,248 
	c0,22.091-17.909,40-40,40s-40-17.909-40-40l0-160 l-80,0 L 280,368 l 80,0 l0-49.67 C 376.499,340.995, 401.72,368, 430,368c 49.706,0, 90-44.771, 90-100
	L 520,88 z" data-tags="linkedin, social" />
<glyph unicode="&#xe017;" d="M 609.569,246.789c 1.757,13, 2.769,26.216, 2.769,39.67c0,161.444-131.589,292.34-293.879,292.34
	c-16.13,0-31.944-1.325-47.332-3.85c-27.59,17.98-60.427,28.459-95.765,28.459C 78.457,603.407,0,524.898,0,428.025
	c0-35.248, 10.374-67.992, 28.238-95.486c-2.406-15.021-3.636-30.404-3.636-46.074c0-161.47, 131.521-292.353, 293.856-292.353
	c 18.321,0, 36.159,1.784, 53.495,4.916c 26.938-16.711, 58.667-26.435, 92.683-26.435C 561.512-27.408, 640,51.122, 640,147.985
	C 639.996,184.601, 628.8,218.645, 609.569,246.789z M 345.925,71.005c-93.381-4.865-137.080,15.796-177.111,53.364
	c-44.706,41.959-26.747,89.817, 9.675,92.251c 36.403,2.43, 58.259-41.266, 77.688-53.42c 19.405-12.11, 93.242-39.7, 132.243,4.885
	c 42.47,48.535-28.242,73.65-80.074,81.252c-74.004,10.957-167.438,50.99-160.169,129.884c 7.27,78.843, 66.978,119.267, 129.813,124.97
	c 80.096,7.271, 132.239-12.134, 173.481-47.325c 47.688-40.661, 21.885-86.118-8.499-89.775c-30.265-3.636-64.255,66.88-130.989,67.94
	c-68.784,1.080-115.271-71.576-30.358-92.23c 84.957-20.631, 175.938-29.108, 208.701-106.771
	C 523.112,158.359, 439.384,75.874, 345.925,71.005z" data-tags="skype, social" />
<glyph unicode="&#xe018;" d="M 533.357,608L 106.68,608 C 48.009,608, 0.001,559.996, 0.001,501.325l0-293.322 L 10,248l 20,0 l 10-40l-10-40L 10,168 l-10,39.998l0-133.315 
	C 0.001,15.971, 48.009-32, 106.68-32l 426.678,0 C 592.031-32, 640,15.971, 640,74.683L 640,207.309 C 640,163.51, 603.074,128, 557.509,128
	c-1.471,0-228.471,0.11-228.681,0.131c-4.926,0.476-8.828,4.519-8.828,9.373L 320,389.2 c0,4.621, 1.636,7.008, 7.861,9.322
	c 16.023,5.959, 34.084,9.477, 52.699,9.477c 76.067,0, 138.433-56.064, 144.999-127.536c 9.822,3.96, 20.611,6.16, 31.915,6.16
	c 45.566,0, 82.526-35.515, 82.526-79.314L 640,501.324 C 640,559.996, 592.026,608, 533.357,608z M 110,128L 90,128 l-10,80l 10,80l 20,0 l 10-80L 110,128z M 190,128l-20,0 
	l-10,101.719L 170,328l 20,0 l 10-100L 190,128z M 270,128l-20,0 l-10,140.137L 250,408l 20,0 l 10-139.863L 270,128z" data-tags="soundcloud, social" />
<glyph unicode="&#xe019;" d="M 533.344,608L 106.655,608 C 47.749,608,0,560.237,0,501.321l0-426.644 C0,15.761, 47.749-32, 106.655-32l 426.689,0 
	C 592.25-32, 640,15.761, 640,74.678L 640,501.321 C 640,560.237, 592.25,608, 533.344,608z M 351.028,180.426
	c-29.075,2.259-41.276,16.66-64.065,30.505c-12.537-65.736-27.851-128.761-73.211-161.68
	c-14.002,99.355, 20.559,173.977, 36.606,253.196c-27.366,46.066, 3.294,138.771, 61.013,115.921
	c 71.016-28.093-61.5-171.255, 27.458-189.135c 92.888-18.668, 130.805,161.161, 73.214,219.64
	c-83.224,84.441-242.249,1.925-222.694-118.972c 4.759-29.558, 35.295-38.524, 12.203-79.314c-53.263,11.807-69.156,53.814-67.11,109.82
	c 3.292,91.671, 82.365,155.852, 161.679,164.729c 100.303,11.227, 194.441-36.818, 207.441-131.173
	C 518.191,287.471, 458.279,172.134, 351.028,180.426z" data-tags="pinterest, social" />
<glyph unicode="&#xe01a;" d="M 533.339,608L 106.679,608 C 48.008,608,0,559.994,0,501.319l0-426.639 C0,15.969, 48.008-32, 106.679-32l 426.66,0 
	C 592.011-32, 640,15.969, 640,74.681L 640,501.319 C 640,559.994, 592.011,608, 533.339,608z M 587.459,20.536
	C 572.926,6.004, 553.706-2, 533.339-2L 106.679-2 c-20.367,0-39.593,8.004-54.13,22.539C 38.008,35.076, 30,54.304, 30,74.68
	L 30,501.319 c0,20.365, 8.009,39.589, 22.551,54.131C 67.093,569.991, 86.316,578, 106.679,578l 426.66,0 c 4.436,0, 8.813-0.403, 13.104-1.147
	l-132.061-181.287l-61.277,61.281c-8.629,8.63-20.106,13.383-32.316,13.383c-12.207,0-23.685-4.751-32.322-13.383l-27.821-27.822
	c-1.561,2.127-3.181,4.228-4.924,6.265c-37.905,44.299-104.544,49.505-148.843,11.589c-44.304-37.899-49.491-104.531-11.585-148.837
	c 8.694-10.168, 18.914-18.249, 30.019-24.246c 0.225-11.4, 4.661-22.734, 13.336-31.415L 288.463,92.579
	c 8.634-8.637, 20.114-13.396, 32.325-13.396c 12.214,0, 23.691,4.76, 32.316,13.394l 149.811,149.801c 8.637,8.635, 13.396,20.115, 13.396,32.325
	s-4.759,23.691-13.394,32.322l-17.236,17.237L 610,433.601l0-358.921 C 610,54.301, 601.995,35.072, 587.459,20.536z M 275.248,401.203
	l 34.426,34.428c 2.969,2.966, 6.915,4.6, 11.114,4.6c 4.196,0, 8.14-1.633, 11.102-4.595l 64.61-64.614l-70.225-96.401
	c-6.934-7.735-13.044-3.665-15.454-0.791c-0.828,0.974-17.304,22.546-38.609,50.489
	C 282.79,348.529, 283.935,376.076, 275.248,401.203z M 312.525,187.978c0,0, 5.441-5.050, 11.447-0.171l 138.699,117.039l 19.035-19.036
	c 2.969-2.968, 4.605-6.911, 4.605-11.107s-1.636-8.14-4.607-11.11L 331.884,113.784c-2.963-2.966-6.902-4.601-11.096-4.601
	c-4.195,0-8.14,1.636-11.11,4.607l-148.287,148.274c 17.261-2.321, 35.045-0.391, 51.654,5.925L 312.525,187.978z" data-tags="foursquare, social" />
<glyph unicode="&#xe01c;" d="M 320,595.2c-169.664,0-307.2-137.536-307.2-307.2c0-77.568, 28.736-148.416, 76.16-202.432c 48.064,48.064, 113.888,75.040, 189.44,72.608
	c 96.384-3.136, 172.48-48.768, 216.096-123.008C 574.656,90.592, 627.2,183.136, 627.2,288C 627.2,457.664, 489.664,595.2, 320,595.2z M 470.176,178.496
	c-5.408-8.96-16.992-11.712-25.92-6.304c-71.168,43.456-160.64,53.28-266.048,29.216c-10.112-2.336-20.288,4-22.56,14.208
	c-2.336,10.080, 3.968,20.256, 14.144,22.56c 115.36,26.368, 214.304,14.976, 294.112-33.728C 472.8,199.008, 475.648,187.392, 470.176,178.496z
	 M 507.264,265.632c-6.816-11.136-21.376-14.592-32.448-7.744c-81.408,50.016-205.504,64.512-301.792,35.296c-12.512-3.776-25.696,3.296-29.44,15.712
	c-3.776,12.512, 3.264,25.696, 15.712,29.44c 109.984,33.44, 246.72,17.248, 340.224-40.192C 510.624,291.232, 514.112,276.768, 507.264,265.632z
	 M 510.432,355.904C 412.832,413.92, 251.84,419.2, 158.656,390.944C 143.68,386.368, 127.872,394.816, 123.328,409.792C 118.816,424.768, 127.264,440.64, 142.176,445.12
	c 107.008,32.48, 284.8,26.208, 397.152-40.512c 13.472-8, 17.92-25.376, 9.952-38.848C 541.248,352.352, 523.904,347.936, 510.432,355.904z M 276.448,66.304
	c-43.232,1.376-79.2-15.456-105.472-46.976C 215.104-5.216, 265.92-19.2, 320-19.2c 26.080,0, 51.392,3.264, 75.584,9.376
	C 372.416,37.76, 332,64.512, 276.448,66.304z" data-tags="spotify, social" />
<glyph unicode="&#xe01b;" d="M 600.64,278.4l-256.768,256.992c-13.12,13.632-34.592,13.632-47.712,0L 39.36,278.4c-13.152-13.6-8.256-24.768, 10.88-24.768l 53.536,0 l0-197.376 
		c0-14.24, 0.608-25.888, 26.368-25.888l 124.64,0 l0,198.016 l 130.4,0 l0-198.016 l 130.848,0 c 19.648,0, 20.192,11.616, 20.192,25.888l0,197.376 l 53.504,0 
		C 608.832,253.632, 613.76,264.768, 600.64,278.4z" data-tags="house, home, building" />
<glyph unicode="&#xe01d;" d="M 640,238.973 L 320,487.364 L 0,238.971 L 0,340.245 L 320,588.636 L 640,340.244 ZM 560,248 L 560,8 L 400,8 L 400,168 L 240,168 L 240,8 L 80,8 L 80,248 L 320,428 Z" data-tags="home, house, building" />
<glyph unicode="&#xe01e;" d="M 386.64,227.18c0,0-33.28-42.5-75.8,0c-41.24,40-71.24,0-71.24,0l-99.34-195.8
			c-2.88-10.66, 3.46-21.62, 14.12-24.48l 329.94,0 c 10.66,2.86, 17,13.8, 14.14,24.48L 386.64,227.18z M 538.78,41.4l-159.58,268.56
			l0,0.5 l-0.28,157.38l 11.020,0 c 16.52,0, 29.96,13.42, 29.96,29.98c0,16.54-13.44,29.96-29.96,29.96l-159.9,0 
			c-16.54,0-29.96-13.42-29.96-29.96c0-16.56, 13.42-29.98, 29.96-29.98l 9.64,0 l-0.32-157.42L 101.2,41.4
			C 92.64,9.42, 111.62-23.44, 143.58-32L 496.4-32 C 528.4-23.44, 547.38,9.42, 538.78,41.4z M 491.060-11.96L 148.9-11.58
			c-21.3,5.72-33.94,27.64-28.24,48.92l 138.94,272.32l 0.42,178.16l-29.96,0 c-5.5,0-9.98,4.48-9.98,10
			c0,5.5, 4.48,9.98, 9.98,9.98l 159.9,0 c 5.5,0, 9.96-4.48, 9.96-9.98c0-5.52-4.46-10-9.96-10L 360,487.82 l 0.5-177.5
			l 158.78-273.32C 525,15.66, 512.34-6.26, 491.060-11.96z M 329.6,557.76c0-11.040, 8.96-20, 20-20s 20,8.96, 20,20s-8.94,20-20,20
			S 329.6,568.82, 329.6,557.76z M 349.6,607.76c 16.56,0, 30,13.42, 30,30s-13.44,30-30,30s-30-13.42-30-30
			S 333.040,607.76, 349.6,607.76z M 269.6,557.76c 11.060,0, 20,8.96, 20,20s-8.94,20-20,20s-20-8.96-20-20S 258.54,557.76, 269.6,557.76z" data-tags="lab, beta, experiments" />
<glyph unicode="&#xe01f;" d="M 320,595.2C 150.336,595.2, 12.8,457.664, 12.8,288S 150.336-19.2, 320-19.2c 169.664,0, 307.168,137.536, 307.168,307.2S 489.696,595.2, 320,595.2z M 402.432,155.456
	c-12.576-5.984-23.936-10.176-34.048-12.608c-10.176-2.4-21.248-3.616-33.056-3.616c-13.44,0-25.312,1.728-35.648,5.152
	c-10.304,3.424-19.136,8.352-26.432,14.688c-7.296,6.336-12.352,13.12-15.168,20.288s-4.224,17.536-4.224,31.136L 253.856,314.848 L 221.376,314.848 L 221.376,356.928 
	c 11.52,3.808, 21.44,9.248, 29.664,16.352c 8.224,7.072, 14.848,15.584, 19.808,25.536C 275.84,408.736, 279.296,421.408, 281.152,436.736l 41.792,0 l0-75.232 l 69.728,0 
	l0-46.688 l-69.728,0 l0-76.288 c0-17.248, 0.896-28.32, 2.72-33.216s 5.152-8.8, 10.048-11.712c 6.528-3.936, 13.984-5.952, 22.336-5.952
	c 14.88,0, 29.696,4.896, 44.384,14.72L 402.432,155.456 z" data-tags="tumblr, social" />
<glyph unicode="&#xe020;" d="M 560,448L 560,528 L0,528 l0-440 c0-22.091, 17.909-40, 40-40l 540,0 c 33.139,0, 60,26.861, 60,60L 640,448 L 560,448 z M 520,88L 40,88 L 40,488 l 480,0 L 520,88 zM 80,408L 480,408L 480,368L 80,368zM 320,328L 480,328L 480,288L 320,288zM 320,248L 480,248L 480,208L 320,208zM 320,168L 440,168L 440,128L 320,128zM 80,328L 280,328L 280,128L 80,128z" data-tags="newspaper, paper" />
<glyph unicode="&#xe021;" d="M 540,608L 60,608 C 27,608,0,581,0,548l0-520 c0-33, 27-60, 60-60l 480,0 c 33,0, 60,27, 60,60L 600,548 C 600,581, 573,608, 540,608z M 520,48L 80,48 
		L 80,528 l 440,0 L 520,48 zM 160,328L 440,328L 440,288L 160,288zM 160,248L 440,248L 440,208L 160,208zM 160,168L 440,168L 440,128L 160,128zM 160,408L 440,408L 440,368L 160,368z" data-tags="file, list, paper, page, document" />
<glyph unicode="&#xe022;" d="M 533.362,608L 106.68,608 C 48.006,608, 0.001,559.991, 0.001,501.321l0-426.641 C 0.001,15.969, 48.006-32, 106.68-32L 533.362-32 
	C 592.031-32, 640,15.969, 640,74.68L 640,501.323 C 639.995,559.991, 592.026,608, 533.362,608z M 457.322,92.57
	c-18.845-8.867-35.955-15.117-51.25-18.711c-15.31-3.556-31.85-5.349-49.626-5.349c-20.195,0-32.11,2.536-47.617,7.618
	c-15.505,5.118-28.75,12.42-39.688,21.795c-10.974,9.455-18.554,19.499-22.791,30.121c-4.24,10.628-6.348,26.058-6.348,46.253L 240.002,329.173 
	l-59.997,0 l0,62.541 c 17.34,5.625, 37.46,13.709, 49.802,24.219c 12.4,10.545, 22.324,23.161, 29.802,37.927
	c 7.502,14.729, 12.656,33.516, 15.47,56.291l 62.813,0 L 337.893,408 L 440,408 l0-78.829 l-102.111,0 l0-113.242 c0-25.625-0.33-40.391, 2.385-47.656
	c 2.695-7.225, 9.454-14.725, 16.814-19.063c 9.785-5.86, 20.94-8.787, 33.516-8.787c 22.366,0, 44.611,7.266, 66.719,21.797L 457.322,92.57 
	L 457.322,92.57z" data-tags="tumblr, social" />
<glyph unicode="&#xe023;" d="M 360,168c-22.080,0-40,17.92-40,40l0,40 c0,22.1, 17.92,40, 40,40l 240,0 l0-120 L 360,168 z M 390,256.34
	c-16.56,0-30-13.44-30-30c0-16.58, 13.44-30, 30-30c 16.58,0, 30,13.42, 30,30C 420,242.9, 406.58,256.34, 390,256.34z M 300,248l0-40 
	c0-33.12, 26.88-60, 60-60l 200,0 l0-80 c0-33.12-26.86-60-60-60L 80,8 c-33.12,0-60,26.88-60,60L 20,448 c0,33.14, 26.88,60, 60,60l 192.64,0 l-46.98-19.58L 70.020,488.42 
	c-16.56,0-30-13.44-30-30c0-16.58, 13.44-30, 30-30L 560,428.42 L 560,308 L 360,308 C 326.88,308, 300,281.14, 300,248z M 100.020,388l-40,0 l0-40 l 20,0 l0,20 l 20,0 L 100.020,388 z M 100.020,328
	l-40,0 l0-40 l 20.82,0 l-0.82,20l 20-0.42L 100.020,328 z M 100.020,268l-40,0 l0-40 l 20.42,0 l-0.42,20l 20,0 L 100.020,268 z M 100.020,208l-40,0 l0-40 l 20.42,0 l-0.42,20l 20-0.42L 100.020,208 z M 100.020,148l-40,0 l0-40 l 20,0 
	l0,20 l 20,0 L 100.020,148 z M 100.020,88l-40,0 l0-40 l 20.42,0 l-0.42,19.58l 20,0 L 100.020,88 z M 180.020,449.24L 415.020,548l 45-98.76L 180.020,449.24 z M 452.92,508L 500,508 
	c 17.52,0, 33.12-7.62, 44.1-19.58l-81.62,0 L 452.92,508z" data-tags="wallet, money" />
<glyph unicode="&#xe024;" d="M 261.4,503.96L 145.48,535.020C 134.82,537.88, 123.86,531.54, 121,520.88L 1.94,76.56
			c-2.86-10.68, 3.48-21.64, 14.16-24.52L 132,20.98c 10.66-2.86, 21.64,3.48, 24.5,14.14l 119.060,444.34
			C 278.4,490.12, 272.080,501.1, 261.4,503.96z M 155.6,109.14c-8.58-32.020-41.46-51-73.48-42.42s-51,41.46-42.42,73.48
			s 41.46,51.020, 73.48,42.42C 145.2,174.040, 164.18,141.14, 155.6,109.14z M 178.58,194.86l-115.9,31.060L 124.78,457.74l 115.92-31.080
			L 178.58,194.86z M 378.76,148c-16.58,0-30-13.44-30-30s 13.42-30, 30-30c 16.56,0, 30,13.44, 30,30S 395.32,148, 378.76,148z
			 M 216.22,412.54L 138.92,433.24L 133.76,413.92l 77.28-20.7L 216.22,412.54z M 200.66,354.58l 5.2,19.32L 128.58,394.6L 123.4,375.28
			L 200.66,354.58z M 105.1,152.44c-16,4.3-32.46-5.22-36.74-21.22c-4.3-16.020, 5.2-32.46, 21.22-36.74
			c 16-4.3, 32.46,5.2, 36.74,21.22C 130.6,131.7, 121.1,148.14, 105.1,152.44z M 598.76,428l-80,0 l0-20 l 80,0 L 598.76,428 z M 598.76,348l-80,0 l0-20 l 80,0 L 598.76,348 z M 598.76,388
			l-80,0 l0-20 l 80,0 L 598.76,388 z M 558.76,148c-16.58,0-30-13.44-30-30s 13.42-30, 30-30c 16.56,0, 30,13.44, 30,30S 575.32,148, 558.76,148z M 618.76,528
			l-120,0 c-11.060,0-20-8.94-20-20l0-460 c0-11.040, 8.94-20, 20-20l 120,0 c 11.040,0, 20,8.96, 20,20L 638.76,508 C 638.76,519.060, 629.78,528, 618.76,528z M 558.76,58
			c-33.14,0-60,26.88-60,60c0,33.14, 26.86,60, 60,60c 33.12,0, 60-26.86, 60-60C 618.76,84.88, 591.88,58, 558.76,58z M 618.76,208l-120,0 L 498.76,448 l 120,0 L 618.76,208 z
			 M 418.76,428l-80,0 l0-20 l 80,0 L 418.76,428 z M 418.76,348l-80,0 l0-20 l 80,0 L 418.76,348 z M 438.76,528l-120,0 c-11.060,0-20-8.94-20-20l0-460 c0-11.040, 8.94-20, 20-20l 120,0 c 11.040,0, 20,8.96, 20,20L 458.76,508 
			C 458.76,519.060, 449.78,528, 438.76,528z M 378.76,59.24c-33.14,0-60,26.88-60,60c0,33.14, 26.86,60, 60,60c 33.12,0, 60-26.86, 60-60
			C 438.76,86.12, 411.88,59.24, 378.76,59.24z M 438.76,208l-120,0 L 318.76,448 l 120,0 L 438.76,208 z M 418.76,388l-80,0 l0-20 l 80,0 L 418.76,388 z M 113.040,336.66l 77.26-20.7l 5.2,19.32
			l-77.28,20.7L 113.040,336.66z" data-tags="archive" />
<glyph unicode="&#xe025;" d="M 179.68,427.060L 179.68,487.38 l 380,0 l0-279.060 l-60.32,0 l 1.24-60.62l-61.56,0 l0-59.060 L 60.32,88.64 L 60.32,368 l 59.38,0 L 119.7,428.32 L 179.68,427.060z M 539.060,468l-340,0 l0-40.94 
	l 301.56,1.24l-1.24-200.62l 39.68,0 L 539.060,468 z M 480,407.68L 139.060,407.68 L 139.060,368 l 300,0 l0-199.68 L 480,168.32 L 480,407.68 z M 79.68,348.62L 79.68,108 l 340,0 L 419.68,348.62 L 79.68,348.62 z" data-tags="stack, papers" />
<glyph unicode="&#xf0e0;" d="M 640,354.429l0-283.571 q0-23.571 -16.786-40.357t-40.357-16.786l-525.714,0 q-23.571,0 -40.357,16.786t-16.786,40.357l0,283.571 q 15.714-17.5 36.071-31.071q 129.286-87.857 177.5-123.214q 20.357-15 33.036-23.393t 33.75-17.143t 39.286-8.75l 0.357,0 l 0.357,0 q 18.214,0 39.286,8.75t 33.75,17.143t 33.036,23.393q 60.714,43.929 177.857,123.214q 20.357,13.929 35.714,31.071zM 640,459.429q0-28.214 -17.5-53.929t-43.571-43.929 q-134.286-93.214 -167.143-116.071q-3.571-2.5 -15.179-10.893t-19.286-13.571t-18.571-11.607t-20.536-9.643t-17.857-3.214l-0.357,0 l-0.357,0 q-8.214,0 -17.857,3.214t-20.536,9.643t-18.571,11.607t-19.286,13.571t-15.179,10.893q-32.5,22.857 -93.571,65.179t-73.214,50.893q-22.143,15 -41.786,41.25t-19.643,48.75q0,27.857 14.821,46.429t 42.321,18.571l 525.714,0 q 23.214,0 40.179-16.786t 16.964-40.357z" data-tags="envelope-alt, letter, email, mail, contact" />
<glyph unicode="&#xe026;" d="M 512,512L 128,512 C 92.8,512, 64,483.2, 64,448l0-224 c0-35.2, 28.8-64, 64-64l 128,0 l 128-96l0,96 l 128,0 c 35.2,0, 64,28.8, 64,64L 576,448 C 576,483.2, 547.2,512, 512,512z" data-tags="comment, bubble, chat, talk, discussion, conversation" />
<glyph unicode="&#xe027;" d="M 499.2,461.504c0,68.48,0,75.168,0,75.168C 499.2,561.952, 418.976,608, 320,608S 140.8,561.952, 140.8,536.672c0,0,0-6.688,0-75.168
		c0-68.48, 124.064-125.024, 124.064-173.504c0-48.512-124.064-105.024-124.064-173.536c0-68.48,0-75.168,0-75.168C 140.8,14.048, 221.024-32, 320-32
		s 179.2,46.048, 179.2,71.328c0,0,0,6.688,0,75.168c0,68.512-124.032,125.024-124.032,173.536C 375.168,336.48, 499.2,393.056, 499.2,461.504z M 190.080,533.472
		c 22.272,14.048, 64.032,34.656, 131.648,34.656c 67.648,0, 128.192-34.656, 128.192-34.656c 4.544-2.752, 22.336-12.288, 10.144-19.488
		c-26.848-15.904-79.328-32.64-140.096-32.64S 208.512,499.808, 181.664,515.712C 169.472,522.944, 190.080,533.472, 190.080,533.472z M 336.032,288
		c0-38.176, 31.872-62.752, 65.664-95.552c 24.672-23.968, 58.4-56.768, 58.4-77.984l0-42.496 c-31.008,15.456-123.872,30.592-123.872,80.128
		c0,25.088-32.448,25.088-32.448,0c0-49.536-92.864-64.672-123.872-80.128l0,42.496 c0,21.184, 33.76,54.016, 58.432,77.984
		C 272.096,225.248, 303.968,249.824, 303.968,288c0,38.176-31.872,62.752-65.632,95.552C 213.664,407.52, 179.904,440.352, 179.904,461.504l-1.504,32
		C 211.232,475.84, 263.296,458.976, 320,458.976s 109.024,16.864, 141.856,34.528l-1.76-32c0-21.152-33.76-53.984-58.4-77.952
		C 367.904,350.752, 336.032,326.176, 336.032,288z" data-tags="hourglass, busy, waiting, working, loading" />
<glyph unicode="&#xe028;" d="M 280.736,550.4c 142.272,0, 257.952-113.984, 261.408-255.84L 620.8,294.56 l-117.728-131.232l-117.728,131.232l 91.392,0 C 473.312,400.192, 386.912,484.8, 280.736,484.8
			c-108.352,0-196.16-88.096-196.16-196.8s 87.808-196.8, 196.16-196.8c 43.456,0, 83.584,14.208, 116.096,38.176l 44.96-48.128
			C 397.408,46.4, 341.504,25.6, 280.736,25.6C 136.288,25.6, 19.2,143.072, 19.2,288C 19.2,432.928, 136.288,550.4, 280.736,550.4z" data-tags="cw, arrow, rotate" />
<glyph unicode="&#xe029;" d="M 160,408A160,160 12780 1 1 480,408A160,160 12780 1 1 160,408zM 480,208L 160,208 C 71.635,208,0,136.364,0,48l0-40 l 5.041,0 l 629.918,0 L 640,8 l0,40 C 640,136.364, 568.365,208, 480,208z" data-tags="user, profile, avatar, person, talk, member" />
<glyph unicode="&#xe02a;" d="M 93.82,61.6C 33.28,122.060,0,202.38,0,288C0,464.4, 143.52,608, 320,608l 40-40l-40-40C 187.66,528, 80,420.34, 80,288
			c0-64.22, 25-124.54, 70.4-169.84l-49.14-6.4L 93.82,61.6L 93.82,61.6zM 320-32l-40,39.84L 320,48c 132.34,0, 240,107.66, 240,240c0,64.060-25,124.38-70.46,169.76l 49.22,6.48
			l 7.34,50.080C 606.64,453.86, 640,373.46, 640,288C 640,111.6, 496.4-32, 320-32L 320-32z" data-tags="spin-alt, refresh, reload, synchronize, loop" />
<glyph unicode="&#xe02b;" d="M 596.88,128C 624.3,175.1, 640,229.56, 640,288c0,176.72-143.28,320-320,320S0,464.72,0,288s 143.28-320, 320-320
		c 88.36,0, 168.36,35.78, 226.24,93.76L 489.6,118.4C 446.18,74.88, 386.18,48, 320,48C 187.66,48, 80,155.66, 80,288S 187.66,528, 320,528s 240-107.66, 240-240
		c0-28.44-5.46-55.62-14.6-80.94L 544.76,208L 480,208 L 480,447.14 l-160,0 c-88.36,0-160-71.64-160-160s 71.64-160, 160-160c 36.72,0, 70.16,12.9, 97.18,33.68
		C 431.72,141.44, 453.9,128, 480,128L 596.88,128 z M 400,327.84l0-40.7 c0-44.14-35.94-80-80-80s-80,35.86-80,80s 35.94,80, 80,80l 80,0 L 400,327.84 z" data-tags="at, email" />
<glyph unicode="&#xe02c;" d="M 365.984,463.488c-13.376-13.056-144.064-150.272-144.064-150.272C 214.784,306.24, 211.232,297.12, 211.232,288s 3.552-18.24, 10.688-25.216
	c0,0, 130.688-137.216, 144.064-150.24c 13.376-13.056, 37.44-13.952, 51.712,0c 14.24,13.92, 15.36,33.344-0.032,50.4L 297.76,288l 119.904,125.056
	c 15.392,17.088, 14.272,36.512, 0.032,50.432C 403.392,477.408, 379.328,476.544, 365.984,463.488z" data-tags="arrow-left, left, previous" />
<glyph unicode="&#xe02d;" d="M 274.016,463.488c 13.376-13.056, 144.064-150.272, 144.064-150.272C 425.248,306.24, 428.8,297.12, 428.8,288s-3.552-18.24-10.72-25.216
	c0,0-130.688-137.216-144.064-150.24c-13.376-13.056-37.408-13.952-51.712,0c-14.272,13.92-15.392,33.344,0,50.4L 342.24,288L 222.336,413.056
	c-15.392,17.088-14.272,36.512,0,50.432C 236.608,477.408, 260.672,476.544, 274.016,463.488z" data-tags="arrow-right, right, next" />
<glyph unicode="&#x20;" horiz-adv-x="320" />
</font>
</defs>
</svg>
